Yoni & Lingam-Massage - Die intime Berührung

Gesendet von: ParRus
Yoni & Lingam-Massage - Die intime Berührung

Yoni & Lingam-Massage - Die intime Berührung
DVDRip | Deutsch | AVI | 608 x 336 | DX50 ~1683 kb/s | 25 fps
MP3 | 128 Kbps | 48.0 KHz | 2 channels | 1h 24mn | 1.07 GB
Genre: eLearning Video / Massage

Die Yoni-Massage (Intim-Massage der Frau) und die Lingam-Massage (Intim-Massage des Mannes) sind eine respektvolle und achtsame Art, Menschen in ihren intimsten Regionen zu berühren. In beiden Filmen werden die Striche der Yoni- und der Lingam-Massage ausführlich und einfach verständlich erklärt, sodass auch Einsteiger einen leichten Zugang dazu bekommen. Im Bonusteil erfahren Sie mehr zu den Hintergründen dieser außergewöhnlichen Massage.
also You can find other my useful: Massage-posts

General
Complete name : Yoni & Lingam-Massage - Die intime Berührung.avi
Format : AVI
Format/Info : Audio Video Interleave
File size : 1.07 GiB
Duration : 1 h 24 min
Overall bit rate : 1 821 kb/s
Writing application : VirtualDubMod 1.5.10.2 (build 2540/release)
Writing library : VirtualDub build 24442/release

Video
ID : 0
Format : MPEG-4 Visual
Format settings : BVOP1
Format settings, BVOP : 1
Format settings, QPel : No
Format settings, GMC : No warppoints
Format settings, Matrix : Default (H.263)
Muxing mode : Packed bitstream
Codec ID : DX50
Codec ID/Hint : DivX 5
Duration : 1 h 24 min
Bit rate : 1 683 kb/s
Nominal bit rate : 4 854 kb/s
Width : 608 pixels
Height : 336 pixels
Display aspect ratio : 16:9
Frame rate : 25.000 FPS
Color space : YUV
Chroma subsampling : 4:2:0
Bit depth : 8 bits
Scan type : Progressive
Compression mode : Lossy
Bits/(Pixel*Frame) : 0.330
Stream size : 1 017 MiB (92%)
Writing library : DivX 6.8.5 (UTC 2009-08-20)

Audio
ID : 1
Format : MPEG Audio
Format version : Version 1
Format profile : Layer 3
Format settings : Joint stereo
Codec ID : 55
Codec ID/Hint : MP3
Duration : 1 h 24 min
Bit rate mode : Constant
Bit rate : 128 kb/s
Channel(s) : 2 channels
Sampling rate : 48.0 kHz
Compression mode : Lossy
Stream size : 77.3 MiB (7%)
Alignment : Split accross interleaves
Interleave, duration : 40 ms (1.00 video frame)
Interleave, preload duration : 500 ms
Writing library : LAME3.98.2

Screenshots

Yoni & Lingam-Massage - Die intime Berührung

Yoni & Lingam-Massage - Die intime Berührung

Yoni & Lingam-Massage - Die intime Berührung

Yoni & Lingam-Massage - Die intime Berührung

Exclusive eLearning Videos ParRus-blogadd to bookmarks

Yoni & Lingam-Massage - Die intime Berührung