Jonas Kaufmann - Selige Stunde (2020) [Official Digital Download 24/96]

Gesendet von: pyatak
Jonas Kaufmann - Selige Stunde (2020) [Official Digital Download 24/96]

Jonas Kaufmann - Selige Stunde (2020) [Official Digital Download 24/96]
FLAC (tracks) 24-bit/96 kHz | Front Cover | Time - 01:10:15 minutes | 1,1 GB
Classical | Label: Sony Classical, Official Digital Download

After the success of his stunning album ‘Otello’, revered tenor Jonas Kaufmann returns with the sensational new album ‘Selige Stunde’. ‘Selige Stunde’ is the first recital in a small series of recordings that Jonas has made during the Covid-19 crisis. This stunning album includes a varied and heart-felt selection of songs that cover the most prominent Lieder composers. All tracks are short and are often performed as encores. The theme of the lyrics centre around love, longing, peacefulness and farewell. Kaufmann is considered one of the greatest tenors of this generation. He has performed at the world’s most prestigious concert venues including the Royal Opera House in London and the Metropolitan Opera House in New York. Kaufmann has won numerous prestigious awards including Gramophone Awards and Echo Klassik Awards.

TRACKLIST

1. Jonas Kaufmann - Der Musensohn, D. 764
2. Jonas Kaufmann - Adelaide, Op. 46
3. Jonas Kaufmann - Ich liebe dich, WoO 123
4. Jonas Kaufmann - Ännchen von Tharau
5. Jonas Kaufmann - Auf Flügeln des Gesanges, Op. 34, No. 2
6. Jonas Kaufmann - Ich liebe dich
7. Jonas Kaufmann - Es muss ein Wunderbares sein, S. 314
8. Jonas Kaufmann - Widmung, Op. 25, No. 1
9. Jonas Kaufmann - Der Jüngling an der Quelle, D. 300
10. Jonas Kaufmann - Still wie die Nacht
11. Jonas Kaufmann - Zueignung, Op. 10, No. 1
12. Jonas Kaufmann - Selige Stunde, Op. 10, No. 2
13. Jonas Kaufmann - In mir klingt ein Lied
14. Jonas Kaufmann - Verschwiegene Liebe
15. Jonas Kaufmann - Als die alte Mutter, Op. 55, No. 4
16. Jonas Kaufmann - Allerseelen, Op. 10, No. 8
17. Jonas Kaufmann - Da unten im Tale, WoO 33, No. 6
18. Jonas Kaufmann - Nur wer die Sehnsucht kennt
19. Jonas Kaufmann - Das Veilchen, K. 476
20. Jonas Kaufmann - Sehnsucht nach dem Frühling, K. 596
21. Jonas Kaufmann - Gruß, Op. 19, No. 5
22. Jonas Kaufmann - Die Forelle, D. 550
23. Jonas Kaufmann - Mondnacht, Op. 39, No. 5
24. Jonas Kaufmann - Wiegenlied, Op. 49, No. 4
25. Jonas Kaufmann - Wandrers Nachtlied II, D. 768
26. Jonas Kaufmann - Verborgenheit
27. Jonas Kaufmann - Ich bin der Welt abhanden gekommen

foobar2000 1.3.16 / Dynamic Range Meter 1.1.1
log date: 2020-09-03 23:52:13

––––––––––––––––––––––––––––––––––––––––
Analyzed: Jonas Kaufmann / Selige Stunde
––––––––––––––––––––––––––––––––––––––––

DR Peak RMS Duration Track
––––––––––––––––––––––––––––––––––––––––
DR12 -0.25 dB -15.47 dB 2:10 01-Der Musensohn, D. 764
DR11 -0.25 dB -15.90 dB 5:59 02-Adelaide, Op. 46
DR13 -0.25 dB -17.42 dB 1:40 03-Ich liebe dich, WoO 123
DR13 -1.22 dB -19.04 dB 3:19 04-Ännchen von Tharau
DR13 -0.25 dB -17.40 dB 2:45 05-Auf Flügeln des Gesanges, Op. 34, No. 2
DR11 -0.25 dB -16.96 dB 2:28 06-Ich liebe dich
DR12 -3.39 dB -22.55 dB 1:37 07-Es muss ein Wunderbares sein, S. 314
DR11 -0.25 dB -15.57 dB 2:07 08-Widmung, Op. 25, No. 1
DR10 -12.67 dB -26.77 dB 2:06 09-Der Jüngling an der Quelle, D. 300
DR9 -0.25 dB -15.45 dB 2:48 10-Still wie die Nacht
DR8 -0.25 dB -12.53 dB 1:45 11-Zueignung, Op. 10, No. 1
DR16 -0.25 dB -22.24 dB 2:02 12-Selige Stunde, Op. 10, No. 2
DR12 -0.25 dB -18.46 dB 2:04 13-In mir klingt ein Lied
DR13 -2.55 dB -22.60 dB 2:16 14-Verschwiegene Liebe
DR11 -0.25 dB -16.66 dB 2:09 15-Als die alte Mutter, Op. 55, No. 4
DR11 -0.25 dB -17.03 dB 2:53 16-Allerseelen, Op. 10, No. 8
DR13 -2.57 dB -21.26 dB 1:48 17-Da unten im Tale, WoO 33, No. 6
DR10 -0.25 dB -15.79 dB 2:56 18-Nur wer die Sehnsucht kennt
DR14 -0.25 dB -20.60 dB 2:28 19-Das Veilchen, K. 476
DR14 -0.25 dB -19.03 dB 1:53 20-Sehnsucht nach dem Frühling, K. 596
DR11 -4.45 dB -21.84 dB 1:25 21-Gruß, Op. 19, No. 5
DR15 -0.94 dB -19.19 dB 2:15 22-Die Forelle, D. 550
DR14 -2.33 dB -23.73 dB 4:20 23-Mondnacht, Op. 39, No. 5
DR12 -10.71 dB -26.74 dB 1:53 24-Wiegenlied, Op. 49, No. 4
DR14 -2.05 dB -22.67 dB 2:00 25-Wandrers Nachtlied II, D. 768
DR11 -0.25 dB -16.60 dB 2:40 26-Verborgenheit
DR15 -1.99 dB -23.92 dB 6:30 27-Ich bin der Welt abhanden gekommen
––––––––––––––––––––––––––––––––––––––––

Number of tracks: 27
Official DR value: DR12

Samplerate: 96000 Hz
Channels: 2
Bits per sample: 24
Bitrate: 2091 kbps
Codec: FLAC
================================================================================



Thanks to the Original customer.