SONIA LIEBING - Absolut (2020) [Official Digital Download]

Gesendet von: pyatak
SONIA LIEBING - Absolut (2020) [Official Digital Download]

SONIA LIEBING - Absolut (2020) [Official Digital Download]
FLAC (tracks) 24-bit/44.1 kHz | Front Cover | Time - 47:49 minutes | 600 MB
Pop | Label: Electrola, Official Digital Download

Bereits mit ihrem Debütalbum »Wunschlos glücklich« setzte Sonia Liebing Maßstäbe und sie wurde zum Shooting-Star des deutschen Schlagers. Mit ihrem neuen Album »Absolut« übertrifft sie ihre eigenen Maßstäbe nochmals und liefert ein Schlager-Album der Extra-Klasse.

Der Albumtitel »Absolut« ist kein Zufall, so erlebt man Sonia Liebing auf diesem Album sehr persönlich mit Geschichten aus ihrem Leben, aus ihrem Alltag. Nahbar, nachdenklich, fröhlich, mutig, frech und offen - so wie die Künstlerin selbst auch ist.

14 Schlagerperlen, modern und mit einer lässigen Leichtigkeit, ein rundum stimmiges Album, welches vor allem eines macht - Lust darauf, es immer wieder anzuhören. Anspieltipps: »Ich will mit dir (nicht nur reden)«, »Eine muss es tun«, »Für die Ewigkeit«, »Absolut«

TRACKLIST

1. SONIA LIEBING - Absolut
2. SONIA LIEBING - Die Möbel sind verrückt
3. SONIA LIEBING - Ich will mit dir (nicht nur reden)
4. SONIA LIEBING - Für die Ewigkeit
5. SONIA LIEBING - Wer sagt, dass ich dich nicht mehr liebe
6. SONIA LIEBING - Eine muss es tun
7. SONIA LIEBING - Küss mich und dann dreh dich nicht mehr um
8. SONIA LIEBING - Keiner will das hören
9. SONIA LIEBING - Wo der Pfeffer wächst
10. SONIA LIEBING - Um den Schlaf gebracht
11. SONIA LIEBING - Mutterherz
12. SONIA LIEBING - Alles nochmal
13. DJ Herzbeat - Maybe
14. SONIA LIEBING - Denn eines Tages vielleicht

foobar2000 1.3.16 / Dynamic Range Meter 1.1.1
log date: 2020-09-26 12:11:53

––––––––––––––––––––––––––––––––––––––––
Analyzed: DJ Herzbeat / Absolut (1)
SONIA LIEBING / Absolut (2-14)
––––––––––––––––––––––––––––––––––––––––

DR Peak RMS Duration Track
––––––––––––––––––––––––––––––––––––––––
DR4 -0.38 dB -6.29 dB 3:01 13-Maybe
DR6 -0.30 dB -7.57 dB 3:34 01-Absolut
DR6 -0.30 dB -7.79 dB 3:37 02-Die Möbel sind verrückt
DR5 -0.30 dB -6.49 dB 3:45 03-Ich will mit dir (nicht nur reden)
DR5 -0.30 dB -8.03 dB 3:16 04-Für die Ewigkeit
DR6 -0.30 dB -8.40 dB 3:24 05-Wer sagt, dass ich dich nicht mehr liebe
DR5 -0.30 dB -7.31 dB 3:10 06-Eine muss es tun
DR6 -0.30 dB -7.37 dB 3:21 07-Küss mich und dann dreh dich nicht mehr um
DR6 -0.30 dB -8.14 dB 3:31 08-Keiner will das hören
DR6 -0.30 dB -8.09 dB 3:27 09-Wo der Pfeffer wächst
DR7 -0.30 dB -8.71 dB 3:34 10-Um den Schlaf gebracht
DR7 -0.30 dB -9.04 dB 3:55 11-Mutterherz
DR6 -0.30 dB -9.23 dB 3:37 12-Alles nochmal
DR7 -0.25 dB -8.55 dB 2:39 14-Denn eines Tages vielleicht
––––––––––––––––––––––––––––––––––––––––

Number of tracks: 14
Official DR value: DR6

Samplerate: 44100 Hz
Channels: 2
Bits per sample: 24
Bitrate: 1665 kbps
Codec: FLAC
================================================================================



Thanks to the Original customer.
Pop