Giovanni Antonini, Bavarian Radio Chorus & Il Giardino Armonico - Haydn 2032: Die Schöpfung (2020) [Of Digital Download 24/48]

Gesendet von: delpotro
Giovanni Antonini, Bavarian Radio Chorus & Il Giardino Armonico - Haydn 2032: Die Schöpfung (2020) [Of Digital Download 24/48]

Giovanni Antonini, Bavarian Radio Chorus & Il Giardino Armonico - Haydn 2032: Die Schöpfung (2020)
FLAC (tracks) 24-bit/48 kHz | Front Cover & Digital Booklet | Time - 100:15 minutes | 1 GB
Classical, Opera | Label: Alpha Classics, Official Digital Download

Giovanni Antonini has been recording the complete symphonies of Joseph Haydn with the Alpha label for more than five years. Now the series is enriched by another monument by the Austrian composer: Die Schöpfung (The Creation), recorded in 2019 with the Bavarian Radio Chorus and his own orchestra, Il Giardino Armonico. This great oratorio was inspired by those of Handel, which Haydn heard performed by very large forces during his visits to England. The Creation, composed between September 1796 and April 1798, demanded such a colossal effort of him that he even fell ill just after its first performance; but the work enjoyed immense success. The marriage between the Bavarian chorus, so familiar with this masterpiece, and the period-instrument musicians of Il Giardino Armonico works perfectly, with a vocal trio composed of leading soloists: Anna Lucia Richter, Maximilian Schmitt and Florian Boesch.

Tracklist:
Disc 1 (01:12:36)
1. Giovanni Antonini & Il Giardino Armonico – Die Schöpfung, Hob. XXI:2, Erster Teil: Introduzione "Die Vorstellung des Chaos" (05:35)
2. Florian Boesch, Chor des Bayerischen Rundfunks, Giovanni Antonini, Maximilian Schmitt & Il Giardino Armonico – Die Schöpfung, Hob. XXI:2, Erster Teil: Recitatio con coro "Im Anfange schud Gott Himmel und Erde" (02:31)
3. Chor des Bayerischen Rundfunks, Giovanni Antonini, Maximilian Schmitt & Il Giardino Armonico – Die Schöpfung, Hob. XXI:2, Erster Teil: Aria con coro "Nun schwanden vor dem heiligen Strahle" (03:57)
4. Florian Boesch, Giovanni Antonini & Il Giardino Armonico – Die Schöpfung, Hob. XXI:2, Erster Teil: Recitativo "Und Gott machte das Firmament" (02:00)
5. Chor des Bayerischen Rundfunks, Giovanni Antonini, Anna Lucia Richter & Il Giardino Armonico – Die Schöpfung, Hob. XXI:2, Erster Teil: Coro con soprano solo "Mit Staunen sieht das Wunderwerk" (02:07)
6. Florian Boesch, Giovanni Antonini & Il Giardino Armonico – Die Schöpfung, Hob. XXI:2, Erster Teil: Recitativo "Und Gott sprach: Es sammle sich das Wasser" (00:39)
7. Florian Boesch, Giovanni Antonini & Il Giardino Armonico – Die Schöpfung, Hob. XXI:2, Erster Teil: Aria "Rollend in schäumenden Wellen" (03:40)
8. Giovanni Antonini, Anna Lucia Richter & Il Giardino Armonico – Die Schöpfung, Hob. XXI:2, Erster Teil: Recitativo "Und Gott sprach: Es bringe die Erde Gras hervor" (00:34)
9. Giovanni Antonini, Anna Lucia Richter & Il Giardino Armonico – Die Schöpfung, Hob. XXI:2, Erster Teil: Aria "Nun beut die Flur das frische Grün" (05:07)
10. Giovanni Antonini, Maximilian Schmitt & Il Giardino Armonico – Die Schöpfung, Hob. XXI:2, Erster Teil: Recitativo "Und die himmlischen Heerscharen verkündigten" (00:11)
11. Chor des Bayerischen Rundfunks, Giovanni Antonini & Il Giardino Armonico – Die Schöpfung, Hob. XXI:2, Erster Teil: Coro "Stimmt an die Saiten" (02:14)
12. Giovanni Antonini, Maximilian Schmitt & Il Giardino Armonico – Die Schöpfung, Hob. XXI:2, Erster Teil: Recitativo "Und Gott sprach: Es sei'n Lichter an der Feste des Himmels" (00:40)
13. Giovanni Antonini, Maximilian Schmitt & Il Giardino Armonico – Die Schöpfung, Hob. XXI:2, Erster Teil: Recitativo "In vollem Glanze steiget jetzt die Sonne" (02:34)
14. Florian Boesch, Chor des Bayerischen Rundfunks, Giovanni Antonini, Anna Lucia Richter, Maximilian Schmitt & Il Giardino Armonico – Die Schöpfung, Hob. XXI:2, Erster Teil: Coro con soli "Die Himmel erzählen die Ehre Gottes" (04:01)
15. Giovanni Antonini, Anna Lucia Richter & Il Giardino Armonico – Die Schöpfung, Hob. XXI:2, Zweiter Teil: Recitativo "Und Gott sprach: Es bringe das Wasser in der Fülle hervor" (00:31)
16. Giovanni Antonini, Anna Lucia Richter & Il Giardino Armonico – Die Schöpfung, Hob. XXI:2, Zweiter Teil: Aria " Auf starkem Fittiche schwinget sich der Adler stolz" (07:20)
17. Florian Boesch, Giovanni Antonini & Il Giardino Armonico – Die Schöpfung, Hob. XXI:2, Zweiter Teil: Recitativo "Und Gott schuf große Walfisch" (02:39)
18. Florian Boesch, Giovanni Antonini, Anna Lucia Richter, Maximilian Schmitt & Il Giardino Armonico – Die Schöpfung, Hob. XXI:2, Zweiter Teil: Terzetto "In holder Anmut stehn" (04:11)
19. Florian Boesch, Chor des Bayerischen Rundfunks, Giovanni Antonini, Anna Lucia Richter, Maximilian Schmitt & Il Giardino Armonico – Die Schöpfung, Hob. XXI:2, Zweiter Teil: Coro con soli "Der Herr ist groß in seiner Macht" (02:04)
20. Florian Boesch, Giovanni Antonini & Il Giardino Armonico – Die Schöpfung, Hob. XXI:2, Zweiter Teil: Recitativo "Und Gott sprach: Es bringe die Erde hervor lebende Geschöpfe" (00:24)
21. Florian Boesch, Giovanni Antonini & Il Giardino Armonico – Die Schöpfung, Hob. XXI:2, Zweiter Teil: Recitativo "Gleich öffnet sich der Erde Schoß" (03:10)
22. Florian Boesch, Giovanni Antonini & Il Giardino Armonico – Die Schöpfung, Hob. XXI:2, Zweiter Teil: Aria "Nun scheint in vollem Glanze der Himmel" (02:59)
23. Giovanni Antonini, Maximilian Schmitt & Il Giardino Armonico – Die Schöpfung, Hob. XXI:2, Zweiter Teil: Recitativo " Und Gott schuf den Menschen" (00:38)
24. Giovanni Antonini, Maximilian Schmitt & Il Giardino Armonico – Die Schöpfung, Hob. XXI:2, Zweiter Teil: Aria "Mit Würd' und Hoheit angetan" (03:31)
25. Florian Boesch, Giovanni Antonini & Il Giardino Armonico – Die Schöpfung, Hob. XXI:2, Zweiter Teil: Recitativo "Und Gott sah jedes Ding" (00:27)
26. Florian Boesch, Chor des Bayerischen Rundfunks, Giovanni Antonini, Anna Lucia Richter, Maximilian Schmitt & Il Giardino Armonico – Die Schöpfung, Hob. XXI:2, Zweiter Teil: Coro con soli "Vollendet ist das große Werk" (08:52)

Disc 2 (27:23)
1. Giovanni Antonini, Maximilian Schmitt & Il Giardino Armonico – Die Schöpfung, Hob. XXI:2, Dritter Teil: Recitativo "Aus Rosenwolken bricht (04:12)
2. Florian Boesch, Chor des Bayerischen Rundfunks, Giovanni Antonini, Anna Lucia Richter & Il Giardino Armonico – Die Schöpfung, Hob. XXI:2, Dritter Teil: Coro con soli "Von deiner Güt', o Herr und Gott" (08:59)
3. Florian Boesch, Giovanni Antonini, Anna Lucia Richter & Il Giardino Armonico – Die Schöpfung, Hob. XXI:2, Dritter Teil: Recitativo "Nun ist die erste Pflicht erfüllt" (02:30)
4. Florian Boesch, Giovanni Antonini, Anna Lucia Richter & Il Giardino Armonico – Die Schöpfung, Hob. XXI:2, Dritter Teil: Duetto " Holde Gattin, dir zur Seite" (07:56)
5. Giovanni Antonini, Maximilian Schmitt & Il Giardino Armonico – Die Schöpfung, Hob. XXI:2, Dritter Teil: Recitativo "O glücklich Paar, und glücklich immerfort" (00:27)
6. Florian Boesch, Chor des Bayerischen Rundfunks, Giovanni Antonini, Anna Lucia Richter, Maximilian Schmitt & Il Giardino Armonico – Die Schöpfung, Hob. XXI:2, Dritter Teil: Coro con soli "Singt dem Herren alle Stimmen!" (03:19)

foobar2000 1.4.1 / Dynamic Range Meter 1.1.1
log date: 2020-10-09 03:38:52

––––––––––––––––––––––––––––––––––––––––
Analyzed: Chor des Bayerischen Rundfunks, Il Giardino Armonico & Giovanni Antonini / Haydn: Die Schöpfung
––––––––––––––––––––––––––––––––––––––––

DR Peak RMS Duration Track
––––––––––––––––––––––––––––––––––––––––
DR16 -1.70 dB -25.18 dB 5:36 01-Die Schöpfung, Hob. XXI:2, Erster Teil: Introduzione "Die Vorstellung des Chaos"
DR13 -0.63 dB -21.43 dB 2:32 02-Die Schöpfung, Hob. XXI:2, Erster Teil: Recitatio con coro "Im Anfange schud Gott Himmel und Erde"
DR15 -0.98 dB -22.09 dB 3:57 03-Die Schöpfung, Hob. XXI:2, Erster Teil: Aria con coro "Nun schwanden vor dem heiligen Strahle"
DR14 -0.97 dB -22.97 dB 2:00 04-Die Schöpfung, Hob. XXI:2, Erster Teil: Recitativo "Und Gott machte das Firmament"
DR12 -0.97 dB -17.78 dB 2:08 05-Die Schöpfung, Hob. XXI:2, Erster Teil: Coro con soprano solo "Mit Staunen sieht das Wunderwerk"
DR12 -9.59 dB -30.01 dB 0:40 06-Die Schöpfung, Hob. XXI:2, Erster Teil: Recitativo "Und Gott sprach: Es sammle sich das Wasser"
DR15 -4.83 dB -26.98 dB 3:41 07-Die Schöpfung, Hob. XXI:2, Erster Teil: Aria "Rollend in schäumenden Wellen"
DR13 -11.14 dB -30.08 dB 0:35 08-Die Schöpfung, Hob. XXI:2, Erster Teil: Recitativo "Und Gott sprach: Es bringe die Erde Gras hervor"
DR16 -0.10 dB -21.91 dB 5:07 09-Die Schöpfung, Hob. XXI:2, Erster Teil: Aria "Nun beut die Flur das frische Grün"
DR16 -14.78 dB -31.49 dB 0:12 10-Die Schöpfung, Hob. XXI:2, Erster Teil: Recitativo "Und die himmlischen Heerscharen verkündigten"
DR13 -0.97 dB -17.08 dB 2:15 11-Die Schöpfung, Hob. XXI:2, Erster Teil: Coro "Stimmt an die Saiten"
DR15 -11.69 dB -32.56 dB 0:41 12-Die Schöpfung, Hob. XXI:2, Erster Teil: Recitativo "Und Gott sprach: Es sei'n Lichter an der Feste des Himmels"
DR13 -4.60 dB -24.10 dB 2:35 13-Die Schöpfung, Hob. XXI:2, Erster Teil: Recitativo "In vollem Glanze steiget jetzt die Sonne"
DR13 -0.97 dB -18.34 dB 4:01 14-Die Schöpfung, Hob. XXI:2, Erster Teil: Coro con soli "Die Himmel erzählen die Ehre Gottes"
DR12 -6.30 dB -23.37 dB 0:31 15-Die Schöpfung, Hob. XXI:2, Zweiter Teil: Recitativo "Und Gott sprach: Es bringe das Wasser in der Fülle hervor"
DR14 -3.33 dB -22.58 dB 7:21 16-Die Schöpfung, Hob. XXI:2, Zweiter Teil: Aria " Auf starkem Fittiche schwinget sich der Adler stolz"
DR15 -4.36 dB -28.14 dB 2:40 17-Die Schöpfung, Hob. XXI:2, Zweiter Teil: Recitativo "Und Gott schuf große Walfisch"
DR15 -1.93 dB -23.98 dB 4:11 18-Die Schöpfung, Hob. XXI:2, Zweiter Teil: Terzetto "In holder Anmut stehn"
DR11 -0.97 dB -15.68 dB 2:05 19-Die Schöpfung, Hob. XXI:2, Zweiter Teil: Coro con soli "Der Herr ist groß in seiner Macht"
DR10 -13.24 dB -30.12 dB 0:25 20-Die Schöpfung, Hob. XXI:2, Zweiter Teil: Recitativo "Und Gott sprach: Es bringe die Erde hervor lebende Geschöpfe"
DR15 -7.64 dB -29.16 dB 3:11 21-Die Schöpfung, Hob. XXI:2, Zweiter Teil: Recitativo "Gleich öffnet sich der Erde Schoß"
DR14 -4.27 dB -23.88 dB 3:00 22-Die Schöpfung, Hob. XXI:2, Zweiter Teil: Aria "Nun scheint in vollem Glanze der Himmel"
DR13 -9.32 dB -29.75 dB 0:39 23-Die Schöpfung, Hob. XXI:2, Zweiter Teil: Recitativo " Und Gott schuf den Menschen"
DR14 -4.01 dB -25.76 dB 3:31 24-Die Schöpfung, Hob. XXI:2, Zweiter Teil: Aria "Mit Würd' und Hoheit angetan"
DR13 -11.36 dB -32.05 dB 0:27 25-Die Schöpfung, Hob. XXI:2, Zweiter Teil: Recitativo "Und Gott sah jedes Ding"
DR13 -0.96 dB -19.60 dB 8:52 26-Die Schöpfung, Hob. XXI:2, Zweiter Teil: Coro con soli "Vollendet ist das große Werk"
DR16 -9.15 dB -31.90 dB 4:12 27-Die Schöpfung, Hob. XXI:2, Dritter Teil: Recitativo "Aus Rosenwolken bricht
DR14 -0.27 dB -19.85 dB 8:59 28-Die Schöpfung, Hob. XXI:2, Dritter Teil: Coro con soli "Von deiner Güt', o Herr und Gott"
DR14 -6.69 dB -26.41 dB 2:31 29-Die Schöpfung, Hob. XXI:2, Dritter Teil: Recitativo "Nun ist die erste Pflicht erfüllt"
DR13 -2.99 dB -22.40 dB 7:56 30-Die Schöpfung, Hob. XXI:2, Dritter Teil: Duetto " Holde Gattin, dir zur Seite"
DR12 -10.50 dB -30.88 dB 0:27 31-Die Schöpfung, Hob. XXI:2, Dritter Teil: Recitativo "O glücklich Paar, und glücklich immerfort"
DR12 -0.93 dB -16.46 dB 3:19 32-Die Schöpfung, Hob. XXI:2, Dritter Teil: Coro con soli "Singt dem Herren alle Stimmen!"
––––––––––––––––––––––––––––––––––––––––

Number of tracks: 32
Official DR value: DR14

Samplerate: 48000 Hz
Channels: 2
Bits per sample: 24
Bitrate: 1529 kbps
Codec: FLAC
================================================================================


Thanks to the Original customer!