Jeff Wayne - Jeff Wayne's Musik: German Version von Krieg der Welten (1978/1980) [2x SACD, Reissue 2005] PS3 ISO + Hi-Res FLAC

Gesendet von: HDAtall
Jeff Wayne - Jeff Wayne's Musik: German Version von Krieg der Welten (1978/1980) [2x SACD, Reissue 2005] PS3 ISO + Hi-Res FLAC

Jeff Wayne - Jeff Wayne's Musik: German Version von Krieg der Welten (1978/1980) [2x SACD - Reissue 2005]
PS3 Rip | SACD ISO | DST64 2.0 & 5.1 > 1-bit/2.8224 MHz | 95:10 minutes | Complete Artwork | 6,17 GB
or FLAC 2.0 Stereo (converted with foobar2000 to tracks) 24bit/96 kHz | 94:42 min | Artwork | 2,1 GB
Features Stereo & Multichannel Surround Sound

This is a German version, initially released in 1980, with Curd Jürgens taking the part of the narrator a.k.a. journalist. The classic double album remastered, repackaged, and stunningly remixed in stereo & 5.1 surround sound.

Jeff Wayne's Musical Version of The War of the Worlds is a 1978 concept album by Jeff Wayne, retelling the story of The War of the Worlds by H. G. Wells. Its format is progressive rock and string orchestra, using narration and leitmotifs to carry the story via rhyming melodic lyrics that express the feelings of the various characters. The two-disc album remains a bestseller, having sold millions of records around the world, and is the 39th best selling album of all time in the UK with sales of 2,561,286 by 2009.

Tracklist:
CD1 - The Coming of the Martians:

01. The Eve Of The War (Am Vorabend Des Krieges)
02. Horsell Common And The Heat Ray (Horsell Common Und Der Feuerstrahl)
03. The Artilleryman And The Fighting Machine (Der Artillerist Und Die Kampfmaschine)
04. Forever Autumn (Auf Ewig Herbst)
05. Thunder Child (Donner Kind)

CD2 - The Earth Under the Martians:
01. The Red Weed - Part 1 (Der Rote Polyp - Teil 1)
02. The Spirit Of Man (Die Seele Des Menschen)
03. The Red Weed - Part 2 (Der Rote Polyp - Teil 2)
04. The Artilleryman Returns (Der Artillerist Kehrt Zurück)
05. Brave New World (Furchtlose Neue Welt)
06. Dead London (Das Tote London)
07. Epilogue - Part 1 (Epilog -Teil 1)
08. Epilogue - Part 2 (Epilog -Teil 2)

Sound Restoration & 2005's Mix by Gary Langan.

foobar2000 1.6.1 / Dynamic Range Meter 1.1.1

––––––––––––––––––––––––––––––––––––––––
Analyzed: JEFF WAYNE / Jeff Wayne's Musik: German Version von Krieg der Welten
––––––––––––––––––––––––––––––––––––––––

DR Peak RMS Duration Track
––––––––––––––––––––––––––––––––––––––––
DR13 -6.01 dB -22.07 dB 9:09 01-The Eve Of The War (Am Vorabend Des Krieges)
DR11 -6.01 dB -23.56 dB 5:54 01-The Red Weed - Part 1 (Der Rote Polyp - Teil 1)
––––––––––––––––––––––––––––––––––––––––

Number of tracks: 2
Official DR value: DR12

Samplerate: 2822400 Hz / PCM Samplerate: 88200 Hz
Channels: 6
Bits per sample: 24
Bitrate: 16934 kbps
Codec: DST64
================================================================================

––––––––––––––––––––––––––––––––––––––––
Analyzed: JEFF WAYNE / Jeff Wayne's Musik: German Version von Krieg der Welten
––––––––––––––––––––––––––––––––––––––––

DR Peak RMS Duration Track
––––––––––––––––––––––––––––––––––––––––
DR14 -5.83 dB -23.16 dB 11:40 02-Horsell Common And The Heat Ray (Horsell Common Und Der Feuerstrahl)
DR12 -5.87 dB -21.34 dB 11:39 02-The Spirit Of Man (Die Seele Des Menschen)
––––––––––––––––––––––––––––––––––––––––

Number of tracks: 2
Official DR value: DR13

Samplerate: 2822400 Hz / PCM Samplerate: 88200 Hz
Channels: 6
Bits per sample: 24
Bitrate: 16934 kbps
Codec: DST64
================================================================================

––––––––––––––––––––––––––––––––––––––––
Analyzed: JEFF WAYNE / Jeff Wayne's Musik: German Version von Krieg der Welten
––––––––––––––––––––––––––––––––––––––––

DR Peak RMS Duration Track
––––––––––––––––––––––––––––––––––––––––
DR13 -5.21 dB -22.39 dB 10:49 03-The Artilleryman And The Fighting Machine (Der Artillerist Und Die Kampfmaschine)
DR11 -5.95 dB -21.63 dB 5:23 03-The Red Weed - Part 2 (Der Rote Polyp - Teil 2)
––––––––––––––––––––––––––––––––––––––––

Number of tracks: 2
Official DR value: DR12

Samplerate: 2822400 Hz / PCM Samplerate: 88200 Hz
Channels: 6
Bits per sample: 24
Bitrate: 16934 kbps
Codec: DST64
==================================================================

––––––––––––––––––––––––––––––––––––––––
Analyzed: JEFF WAYNE / Jeff Wayne's Musik: German Version von Krieg der Welten
––––––––––––––––––––––––––––––––––––––––

DR Peak RMS Duration Track
––––––––––––––––––––––––––––––––––––––––
DR12 -5.78 dB -21.18 dB 7:42 04-Forever Autumn (Auf Ewig Herbst)
DR13 -6.13 dB -23.60 dB 1:27 04-The Artilleryman Returns (Der Artillerist Kehrt Zurück)
DR12 -5.88 dB -21.67 dB 12:14 05-Brave New World (Furchtlose Neue Welt)
––––––––––––––––––––––––––––––––––––––––

Number of tracks: 3
Official DR value: DR12

Samplerate: 2822400 Hz / PCM Samplerate: 88200 Hz
Channels: 6
Bits per sample: 24
Bitrate: 16934 kbps
Codec: DST64
====================================================================================================

––––––––––––––––––––––––––––––––––––––––
Analyzed: JEFF WAYNE / Jeff Wayne's Musik: German Version von Krieg der Welten
––––––––––––––––––––––––––––––––––––––––

DR Peak RMS Duration Track
––––––––––––––––––––––––––––––––––––––––
DR11 -5.73 dB -20.68 dB 6:15 05-Thunder Child (Donner Kind)
DR12 -5.90 dB -22.14 dB 8:33 06-Dead London (Das Tote London)
DR11 -5.75 dB -20.21 dB 2:33 07-Epilogue - Part 1 (Epilog -Teil 1)
DR11 -5.90 dB -23.20 dB 1:52 08-Epilogue - Part 2 (Epilog -Teil 2)
––––––––––––––––––––––––––––––––––––––––

Number of tracks: 4
Official DR value: DR11

Samplerate: 2822400 Hz / PCM Samplerate: 88200 Hz
Channels: 6
Bits per sample: 24
Bitrate: 16934 kbps
Codec: DST64
===================================================================

––––––––––––––––––––––––––––––––––––––––
Analyzed: JEFF WAYNE / Jeff Wayne's Musik: German Version von Krieg der Welten
––––––––––––––––––––––––––––––––––––––––

DR Peak RMS Duration Track
––––––––––––––––––––––––––––––––––––––––
DR13 -4.63 dB -21.15 dB 9:08 01-The Eve Of The War (Am Vorabend Des Krieges)
DR14 -4.50 dB -24.81 dB 5:53 01-The Red Weed - Part 1 (Der Rote Polyp - Teil 1)
DR14 -6.55 dB -23.16 dB 11:35 02-Horsell Common And The Heat Ray (Horsell Common Und Der Feuerstrahl)
DR14 -4.68 dB -21.83 dB 11:37 02-The Spirit Of Man (Die Seele Des Menschen)
DR12 -5.77 dB -21.07 dB 10:36 03-The Artilleryman And The Fighting Machine (Der Artillerist Und Die Kampfmaschine)
DR11 -4.57 dB -21.24 dB 5:25 03-The Red Weed - Part 2 (Der Rote Polyp - Teil 2)
DR12 -8.20 dB -23.69 dB 7:42 04-Forever Autumn (Auf Ewig Herbst)
DR14 -7.02 dB -22.62 dB 1:27 04-The Artilleryman Returns (Der Artillerist Kehrt Zurück)
DR15 -3.97 dB -22.51 dB 12:15 05-Brave New World (Furchtlose Neue Welt)
DR12 -6.12 dB -21.60 dB 6:07 05-Thunder Child (Donner Kind)
DR13 -7.77 dB -26.05 dB 8:33 06-Dead London (Das Tote London)
DR13 -6.51 dB -23.05 dB 2:31 07-Epilogue - Part 1 (Epilog -Teil 1)
DR13 -8.72 dB -26.99 dB 1:53 08-Epilogue - Part 2 (Epilog -Teil 2)
––––––––––––––––––––––––––––––––––––––––

Number of tracks: 13
Official DR value: DR13

Samplerate: 2822400 Hz / PCM Samplerate: 88200 Hz
Channels: 2
Bits per sample: 24
Bitrate: 5645 kbps
Codec: DST64


Thanks to grillbrill!
Uncompressed SACD ISO size > 2,87 + 3,01 GB
>