Karl Bohm, Berliner Philharmoniker - Mozart: The Magic Flute (1964) [Japan 2016] PS3 ISO + Hi-Res FLAC

Gesendet von: HDAtall
Karl Bohm, Berliner Philharmoniker - Mozart: The Magic Flute (1964) [Japan 2016] PS3 ISO + Hi-Res FLAC

Karl Böhm, Berliner Philharmoniker - Mozart: Die Zauberflöte (1964) [Japan 2016]
PS3 Rip | 2x SACD ISO | DSD64 2.0 > 1-bit/2.8224 MHz | 147:37 minutes | Cover + PDF Booklet | 3,76 GB
or FLAC Stereo (converted with foobar2000 to tracks) 24bit/96 kHz | Cover + PDF Booklet | 3,14 GB

This historic 1964 recording showcases conductor Karl Böhm unique take on Mozart's Die Zauberflöte as he leads Berlin Philharmonic and a cast of soloists featuring tenor Fritz Wunderlich, baritone Dietrich Fischer-Dieskau and soprano Evelyn Lear.

This is a very satisfying account of ‘Die Zauberflöte‘, principally on account of Böhm’s handling of the score. He inspires the Berlin Philharmonic to convey a Masonic ‘gravitas’ which is in keeping with the philosophy of Enlightenment Reason which lurks behind the pantomime elements of this unusual work. You will certainly find deliberate speeds here, which may not be to your taste if you like fleet, revisionist, original-instrument Mozart. Vocally it’s the women in this recording that have had a bad press: but Evelyn Lear has some lovely tones in her voice even if there are occasions when Pamina’s music presents her with challenges. If you want perfection in this part, go for Janowitz on the Klemperer recording (but be warned, that has no dialogue). Similarly you may feel that Klemperer’s young Lucia Popp easily outclasses Roberta Peters as Queen of the Night. But Peters still has pin-point accuracy and presents Pamina’s mother as an icy, calculating customer. It’s all a matter of taste. Klemperer’s Sarastro on the other hand, Gottlob Frick (well-known for his brilliant Hagen in Solti’s Gotterdammerung) is really having an off day, fluffing one of his lower notes in Act 1 seriously. Franz Crass on this recording, sounding younger than the average Sarastro, has all the notes and the firmness too. Wunderlich’s Tamino for Böhm has been praised to the skies and rightly so; Fischer-Dieskau’s delightful Papageno is a winner as is his destined partner Lisa Otto as Papagena. Admittedly Böhm’s Three Ladies are adequate rather than distinguished and it is a disappointment having female singers as the Three Boys (though they make a fair stab at it). Much depends on the kind of approach which suits you in this opera. For overall vision however this recording is still hard to beat. The sound is excellent and you are drawn into the semi-secret rituals of Mozart’s late masterpiece in the German singspiel style.

Tracklist:

SACD 1#01. Overture
SACD 1#02. Zu Hilfe! Zu Hilfe! (Tamino, Die drei Damen)
SACD 1#03. Dialog "Wo bin ich?" (Tamino)
SACD 1#04. Der Vogelfanger bin ich ja (Papageno)
SACD 1#05. Dialog "He da!" (Tamino, Papageno, Die drei Damen)
SACD 1#06. Dies Bildnis ist bezaubernd schön (Tamino)
SACD 1#07. Dialog "Ruste dich mit Mut und Standhaftigkeit" (Die drei Damen, Tamino)
SACD 1#08. "O zittre nicht, mein lieber Sohn"
SACD 1#09. Ist's denn Wirklichkeit, was ich sah? (Tamino)
SACD 1#10. Hm! hm! hm! hm! (Papageno, Tamino, Die drei Damen)
SACD 1#11. Du feines Taubchen, nur herein (Monostatos, Pamina, Papageno)
SACD 1#12. Dialog "Bin ich nicht ein Narr"
SACD 1#13. Bei Mannern, welche Liebe fühlen (Pamina, Papageno)
SACD 1#14. "Zum Ziele fuhrt dich diese Bahn"
SACD 1#15. "Wie stark ist nicht dein Zauberton"
SACD 1#16. Schnelle Fusse, rascher Mut (Pamina, Papageno, Monostatos, Chor)
SACD 1#17. Es lebe Sarastro! Sarastro lebe! (Chor, Pamina, Sarastro, Papageno, Monostatos, Tamino)

SACD 2#01. In diesen heil'gen Hallen (Sarastro)
SACD 2#02. Dialog "Ihr eingeweihten Diener der Gotter Osiris…"
SACD 2#03. O Isis und Osiris (Sarastro, Chor)
SACD 2#04. Dialog "Eine schreckliche Nacht"
SACD 2#05. Bewahret euch vor Weibertücken (Erster Prister, Zweiter Priester)
SACD 2#06. Dialog "He, Lichter her!" (Papageno,Tamino)
SACD 2#07. "Wie? Wie? Wie? Ihr an diesem Schreckensort?"
SACD 2#08. "Wie? Wie? Wie? Ihr an diesem Schreckensort?"
SACD 2#09. Alles fuhlt der Liebe Freuden (Monostatos)
SACD 2#10. Mutter!
SACD 2#11. Der Hölle Rache kocht in meinem Herzen (Königin der Nacht)
SACD 2#12. Dialog "Morden soll ich?" (Pamina, Monostatos, Sarastro)
SACD 2#13. In diesen heil'gen Hallen (Sarastro)
SACD 2#14. Dialog "Hier seid ihr beide euch allein uberlassen" (Sprecher, 2. Prister, Papageno, Tamino,…)
SACD 2#15. "Seid uns zum zweiten Mal willkommen"
SACD 2#16. Dialog "Tamino, wollen wir nicht speisen?"
SACD 2#17. Ach, ich fuhl's, es ist verschwunden (Pamina)
SACD 2#18. O Isis und Osiris (Chor)
SACD 2#19. Tamino, deine Haltung war bisher mannlich
SACD 2#20. Soll ich dich, Teurer, nicht mehr sehn? (Pamira, Sarastro, Tamino)
SACD 2#21. Tamino! Tamino!
SACD 2#22. Ein Madchen oder Weibchen (Papageno)
SACD 2#23. Dialog "Da bin ich schon, mein Engel" (Weib, Papageno, Sprecher)
SACD 2#24. Bald prangt, den Morgen zu verkunden (Die drei Knaben, Pamina)
SACD 2#25. "Der, welcher wandelt diese Straße voll Beschwerden"
SACD 2#26. Tamino mein, o welch ein Gluck (Tamino, Pamina, die Geharnischten)
SACD 2#27. "Papagena! Papagena!"
SACD 2#28. Nur stille, stille, stille, stille!
SACD 2#29. Die Strahlen der Sonne vertreiben die Nacht (Sarastro,Chor)

Performers
Fritz Wunderlich - tenor (Tamino)
Evelyn Lear - soprano (Pamina)
Dietrich Fischer-Dieskau - baritone (Papageno)
Lisa Otto - soprano (Papagena)
Roberta Peters - soprano (Queen of the Night)
Friedrich Lenz - tenor (Monostatus)
Franz Crass - baritone (Sarastro)
Hans Hotter - speaker
RIAS Kammerchor - Chorus Master: Günther Arndt
Berliner Philharmoniker - Conducted by Karl Böhm

Recorded on June 18-25, 1964 at Jesus-Christus Kirche, Berlin.
DSD master newly produced by Emil Berliner Studios in 2016, using the original master tapes.
Deutsche Grammophon / Universal Japan # UCGG-9089~90

foobar2000 1.6 / Dynamic Range Meter 1.1.1

––––––––––––––––––––––––––––––––––––––––
Analyzed: Karl Bohm / Mozart: Die Zauberflote
––––––––––––––––––––––––––––––––––––––––

DR Peak RMS Duration Track
––––––––––––––––––––––––––––––––––––––––
DR12 -10.04 dB -26.16 dB 7:16 01-Mozart: Overture [Die Zauberflote, K.620]
DR12 -6.27 dB -24.00 dB 6:45 02-Mozart: Zu Hilfe! Zu Hilfe! (Tamino, Die drei Damen) [Die Zauberflote, K.620 / Erster Aufzug]
DR11 -22.51 dB -34.83 dB 0:21 03-Mozart: Dialog "Wo bin ich?" (Tamino) [Die Zauberflote, K.620 / Erster Aufzug]
DR14 -10.06 dB -27.75 dB 2:35 04-Mozart: Der Vogelfanger bin ich ja (Papageno) [Die Zauberflote, K.620 / Erster Aufzug]
DR19 -9.94 dB -32.57 dB 3:13 05-Mozart: Dialog "He da!" (Tamino, Papageno, Die drei Damen) [Die Zauberflote, K.620 / Erster Aufzug]
DR13 -12.99 dB -30.40 dB 4:38 06-Mozart: Dies Bildnis ist bezaubernd schön (Tamino) [Die Zauberflote, K.620 / Erster Aufzug]
DR14 -8.89 dB -30.21 dB 0:46 07-Mozart: Dialog "Ruste dich mit Mut und Standhaftigkeit" (Die drei Damen, Tamino) [Die Zauberflote, K.620]
DR13 -9.64 dB -26.96 dB 5:22 08-Mozart: "O zittre nicht, mein lieber Sohn" [Die Zauberflote, K.620 / Erster Aufzug]
DR14 -23.44 dB -37.21 dB 0:03 09-Mozart: Ist's denn Wirklichkeit, was ich sah? (Tamino) [Die Zauberflote, K.620 / Erster Aufzug]
DR16 -6.31 dB -27.39 dB 6:27 10-Mozart: Hm! hm! hm! hm! (Papageno, Tamino, Die drei Damen) [Die Zauberflote, K.620 / Erster Aufzug]
DR11 -8.18 dB -26.34 dB 1:47 11-Mozart: Du feines Taubchen, nur herein (Monostatos, Pamina, Papageno) [Die Zauberflote, K.620 / Erster Aufzug]
DR17 -13.42 dB -33.74 dB 1:22 12-Mozart: Dialog "Bin ich nicht ein Narr" [Die Zauberflote, K.620 / Erster Aufzug]
DR12 -8.23 dB -26.35 dB 3:18 13-Mozart: Bei Mannern, welche Liebe fühlen (Pamina, Papageno) [Die Zauberflote, K.620 / Erster Aufzug]
DR15 -8.98 dB -29.27 dB 10:25 14-Mozart: "Zum Ziele fuhrt dich diese Bahn" [Die Zauberflote, K.620 / Erster Aufzug]
DR14 -11.22 dB -29.95 dB 3:19 15-Mozart: "Wie stark ist nicht dein Zauberton" [Die Zauberflote, K.620 / Erster Aufzug]
DR13 -8.48 dB -27.60 dB 3:14 16-Mozart: Schnelle Fusse, rascher Mut (Pamina, Papageno, Monostatos, Chor) [Die Zauberflote, K.620 / Erster Aufzug]
DR13 -6.28 dB -24.39 dB 9:01 17-Mozart: Es lebe Sarastro! Sarastro lebe! (Chor, Pamina, Sarastro, Papageno, Monostatos, Tamino) [Die Zauberflote, K.620 / Act1]
––––––––––––––––––––––––––––––––––––––––

Number of tracks: 17
Official DR value: DR14

Samplerate: 2822400 Hz / PCM Samplerate: 176400 Hz
Channels: 2
Bits per sample: 1
Bitrate: 5645 kbps
Codec: DSD64
================================================================================

––––––––––––––––––––––––––––––––––––––––
Analyzed: Karl Bohm / Mozart: Die Zauberflote
––––––––––––––––––––––––––––––––––––––––

DR Peak RMS Duration Track
––––––––––––––––––––––––––––––––––––––––
DR11 -17.06 dB -31.11 dB 1:24 01-Mozart: In diesen heil'gen Hallen (Sarastro) [Die Zauberflote, K.620 / Zweiter Aufzug]
DR14 -13.91 dB -32.15 dB 2:20 02-Mozart: Dialog "Ihr eingeweihten Diener der Gotter Osiris…" [Die Zauberflote, K.620 / Zweiter Aufzug]
DR12 -11.17 dB -27.06 dB 2:56 03-Mozart: O Isis und Osiris (Sarastro, Chor) [Die Zauberflote, K.620 / Zweiter Aufzug]
DR16 -9.25 dB -31.22 dB 1:57 04-Mozart: Dialog "Eine schreckliche Nacht" [Die Zauberflote, K.620 / Zweiter Aufzug]
DR12 -7.97 dB -28.60 dB 0:55 05-Mozart: Bewahret euch vor Weibertücken (Erster Prister, Zweiter Priester) [Die Zauberflote, K.620 / Zweiter Aufzug]
DR15 -10.51 dB -29.49 dB 0:13 06-Mozart: Dialog "He, Lichter her!" (Papageno,Tamino) [Die Zauberflote, K.620 / Zweiter Aufzug]
DR15 -7.12 dB -26.83 dB 3:38 07-Mozart: "Wie? Wie? Wie? Ihr an diesem Schreckensort?" [Die Zauberflote, K.620 / Zweiter Aufzug]
DR14 -14.19 dB -33.86 dB 0:27 08-Mozart: "Wie? Wie? Wie? Ihr an diesem Schreckensort?" [Die Zauberflote, K.620 / Zweiter Aufzug]
DR16 -11.16 dB -30.54 dB 1:19 09-Mozart: Alles fuhlt der Liebe Freuden (Monostatos) [Die Zauberflote, K.620 / Zweiter Aufzug]
DR13 -12.34 dB -33.72 dB 0:21 10-Mozart: Mutter! [Die Zauberflote, K.620 / Zweiter Aufzug]
DR11 -5.51 dB -21.15 dB 2:56 11-Mozart: Der Hölle Rache kocht in meinem Herzen (Königin der Nacht) [Die Zauberflote, K.620 / Zweiter Aufzug]
DR17 -13.62 dB -33.90 dB 0:48 12-Mozart: Dialog "Morden soll ich?" (Pamina, Monostatos, Sarastro) [Die Zauberflote, K.620 / Zweiter Aufzug]
DR13 -9.79 dB -27.94 dB 4:05 13-Mozart: In diesen heil'gen Hallen (Sarastro) [Die Zauberflote, K.620 / Zweiter Aufzug]
DR21 -8.36 dB -32.98 dB 1:47 14-Mozart: Dialog "Hier seid ihr beide euch allein uberlassen" (Sprecher, 2. Prister, Papageno, Tamino,…)
DR12 -16.09 dB -31.82 dB 1:48 15-Mozart: "Seid uns zum zweiten Mal willkommen" [Die Zauberflote, K.620 / Zweiter Aufzug]
DR15 -15.50 dB -33.63 dB 1:08 16-Mozart: Dialog "Tamino, wollen wir nicht speisen?" [Die Zauberflote, K.620 / Zweiter Aufzug]
DR15 -10.56 dB -30.58 dB 4:30 17-Mozart: Ach, ich fuhl's, es ist verschwunden (Pamina) [Die Zauberflote, K.620 / Zweiter Aufzug]
DR12 -8.03 dB -25.02 dB 3:07 18-Mozart: O Isis und Osiris (Chor) [Die Zauberflote, K.620 / Zweiter Aufzug]
DR15 -12.26 dB -34.22 dB 0:32 19-Mozart: Tamino, deine Haltung war bisher mannlich [Die Zauberflote, K.620 / Zweiter Aufzug]
DR12 -6.99 dB -25.19 dB 3:02 20-Mozart: Soll ich dich, Teurer, nicht mehr sehn? (Pamira, Sarastro, Tamino) [Die Zauberflote, K.620 / Zweiter Aufzug]
DR17 -10.88 dB -32.72 dB 1:09 21-Mozart: Tamino! Tamino! [Die Zauberflote, K.620 / Zweiter Aufzug]
DR15 -9.07 dB -28.83 dB 3:55 22-Mozart: Ein Madchen oder Weibchen (Papageno) [Die Zauberflote, K.620 / Zweiter Aufzug]
DR14 -7.69 dB -29.78 dB 1:01 23-Mozart: Dialog "Da bin ich schon, mein Engel" (Weib, Papageno, Sprecher) [Die Zauberflote, K.620 / Zweiter Aufzug]
DR14 -9.74 dB -28.30 dB 6:24 24-Mozart: Bald prangt, den Morgen zu verkunden (Die drei Knaben, Pamina) [Die Zauberflote, K.620 / Zweiter Aufzug]
DR13 -8.15 dB -26.39 dB 5:25 25-Mozart: "Der, welcher wandelt diese Straße voll Beschwerden" [Die Zauberflote, K.620 / Zweiter Aufzug]
DR13 -7.95 dB -26.08 dB 7:04 26-Mozart: Tamino mein, o welch ein Gluck (Tamino, Pamina, die Geharnischten) [Die Zauberflote, K.620 / Zweiter Aufzug]
DR13 -7.83 dB -26.87 dB 8:10 27-Mozart: "Papagena! Papagena!" [Die Zauberflote, K.620 / Zweiter Aufzug]
DR13 -7.14 dB -26.68 dB 2:16 28-Mozart: Nur stille, stille, stille, stille! [Die Zauberflote, K.620 / Zweiter Aufzug]
DR11 -6.94 dB -21.98 dB 3:10 29-Mozart: Die Strahlen der Sonne vertreiben die Nacht (Sarastro,Chor) [Die Zauberflote, K.620 / Zweiter Aufzug]
––––––––––––––––––––––––––––––––––––––––

Number of tracks: 29
Official DR value: DR14

Samplerate: 2822400 Hz / PCM Samplerate: 176400 Hz
Channels: 2
Bits per sample: 1
Bitrate: 5645 kbps
Codec: DSD64


Thanks to ManWhoCan!
Uncompressed SACD ISO size > 2,8 + 3,11 GB
>