Kraftwerk - Minimum-Maximum (2005) [German Version] MCH PS3 ISO + Hi-Res FLAC

Gesendet von: HDAtall
Kraftwerk - Minimum-Maximum (2005) [German Version] MCH PS3 ISO + Hi-Res FLAC

Kraftwerk - Minimum-Maximum (2005) [German Version]
PS3 Rip | SACD ISO | DST64 2.0 & 5.1 > 1-bit/2.8224 MHz | 120:47 minutes | Scans included | 7,76 GB
or FLAC 2.0 Stereo (converted with foobar2000 to tracks) 24bit/96 kHz | Full Scans included | 2,98 GB
Features Stereo and Multichannel Surround Sound

Like many of their studio albums, Minimum-Maximum was released in two different language versions: the band's native German, and English for the international market, though of the 23 tracks on the album, only the recordings of "The Model", "Radioactivity", "Trans Europe Express"/"Metal on Metal", "Computer World", "Pocket Calculator" and "The Robots" are actually different between the releases. The album title, an excerpt from the lyrics of the song "Elektro-Kardiogramm" (which only exists in an English-language version), is the same for both German and English versions.

The Godfathers of Glitch and the Kings of Kling-Klang come out of seclusion with a double live CD culled from various concerts on their 2004 tour. Minimum-Maximum is essentially a greatest-hits album with an audience applauding and occasionally shouting. Without them, of course, you'd never know the album was live, since Kraftwerk is the band that put the programming in pop music. Not much has changed with them since the 1980s. They're still wired to the same sonic circuitry as on Electric Café in 1986, sculpting glistening electro-soundscapes that pulse but never quite groove. And they still sing in that flat, German-accented English and French with Speak and Spell electro-voices. But rather than sound dated, this has a timeless charm, especially since Kraftwerk are among the few Kraut rock groups with a sense of humor. With only two studio albums in the last 20 years, you have to give them credit for not caving in to current electronica and techno trends–Kraftwerk remain resolutely electronic. Even their samples sound synthesized. But also give them credit for some of the most relentlessly glistening electronic music ever crafted, and a sound that remains surprisingly pure. All the hits are here, from "Autobahn" to "Tour de France," but nicely buffed to a high chrome finish.

Tracklist:

Disc 1 #01. Die Mensch Maschine
Disc 1 #02. Planet Of Visions
Disc 1 #03. Tour De France Etape 1
Disc 1 #04. Chrono
Disc 1 #05. Tour De France Etape 2
Disc 1 #06. Vitamin
Disc 1 #07. Tour De France
Disc 1 #08. Autobahn
Disc 1 #09. Das Model
Disc 1 #10. Neonlicht

Disc 2 #01. Radioactivitat
Disc 2 #02. Trans-Europa Express
Disc 2 #03. Abzug
Disc 2 #04. Metall Auf Metall
Disc 2 #05. Numbers
Disc 2 #06. Computerwelt
Disc 2 #07. Home Computer
Disc 2 #08. Taschenrechner
Disc 2 #09. Dentaku
Disc 2 #10. Die Roboter
Disc 2 #11. Elektro Kardiogramm
Disc 2 #12. Aero Dynamik
Disc 2 #13. Musique Non Stop

foobar2000 1.5.5 / Dynamic Range Meter 1.1.1

––––––––––––––––––––––––––––––––––––––––
Analyzed: Kraftwerk / Minimum - Maximum (Disc 1)
––––––––––––––––––––––––––––––––––––––––

DR Peak RMS Duration Track
––––––––––––––––––––––––––––––––––––––––
DR13 -3.55 dB -20.49 dB 7:55 01-Die Mensch Maschine
DR11 -4.50 dB -19.23 dB 4:46 02-Planet Of Visions
DR12 -4.59 dB -19.83 dB 4:22 03-Tour De France Etape 1
DR13 -4.45 dB -21.59 dB 1:29 04-Chrono
DR12 -4.52 dB -19.74 dB 4:49 05-Tour De France Etape 2
DR11 -4.58 dB -19.28 dB 6:42 06-Vitamin
DR12 -4.59 dB -19.07 dB 6:18 07-Tour De France
DR13 -4.56 dB -20.73 dB 8:51 08-Autobahn
DR13 -4.47 dB -19.02 dB 3:42 09-Das Model
DR13 -4.55 dB -20.11 dB 5:59 10-Neonlicht
––––––––––––––––––––––––––––––––––––––––

Number of tracks: 10
Official DR value: DR12

Samplerate: 2822400 Hz / PCM Samplerate: 176400 Hz
Channels: 6
Bits per sample: 24
Bitrate: 16934 kbps
Codec: DST64
=========================================================

––––––––––––––––––––––––––––––––––––––––
Analyzed: Kraftwerk / Minimum - Maximum (Disc 1)
––––––––––––––––––––––––––––––––––––––––

DR Peak RMS Duration Track
––––––––––––––––––––––––––––––––––––––––
DR9 -4.07 dB -15.89 dB 7:55 01-Die Mensch Maschine
DR9 -4.38 dB -14.53 dB 4:46 02-Planet Of Visions
DR9 -4.60 dB -14.53 dB 4:22 03-Tour De France Etape 1
DR10 -4.36 dB -15.82 dB 1:29 04-Chrono
DR8 -4.51 dB -14.20 dB 4:49 05-Tour De France Etape 2
DR9 -4.34 dB -14.36 dB 6:42 06-Vitamin
DR9 -4.46 dB -15.24 dB 6:18 07-Tour De France
DR8 -4.56 dB -14.13 dB 8:51 08-Autobahn
DR9 -4.54 dB -14.16 dB 3:42 09-Das Model
DR9 -4.54 dB -14.75 dB 5:59 10-Neonlicht
––––––––––––––––––––––––––––––––––––––––

Number of tracks: 10
Official DR value: DR9

Samplerate: 2822400 Hz / PCM Samplerate: 176400 Hz
Channels: 2
Bits per sample: 24
Bitrate: 5645 kbps
Codec: DST64
===================================================================================

foobar2000 1.4.1 / Dynamic Range Meter 1.1.1

––––––––––––––––––––––––––––––––––––––––
Analyzed: Kraftwerk / Minimum - Maximum (Disc 2)
––––––––––––––––––––––––––––––––––––––––

DR Peak RMS Duration Track
––––––––––––––––––––––––––––––––––––––––
DR12 -4.54 dB -20.00 dB 7:42 01-Radioactivitat
DR14 -4.59 dB -21.01 dB 3:20 02-Trans-Europa Express
DR12 -4.20 dB -21.38 dB 1:42 03-Abzug
DR13 -4.32 dB -20.72 dB 4:29 04-Metall Auf Metall
DR12 -4.51 dB -20.61 dB 4:27 05-Numbers
DR11 -4.51 dB -17.81 dB 2:56 06-Computerwelt
DR11 -4.41 dB -19.85 dB 5:55 07-Home Computer
DR13 -4.63 dB -20.41 dB 2:58 08-Taschenrechner
DR13 -4.57 dB -18.99 dB 3:15 09-Dentaku
DR12 -4.58 dB -19.87 dB 7:24 10-Die Roboter
DR14 -4.55 dB -19.78 dB 4:41 11-Elektro Kardiogramm
DR13 -4.44 dB -19.84 dB 7:14 12-Aero Dynamik
DR15 -3.54 dB -20.82 dB 9:51 13-Musique Non Stop
––––––––––––––––––––––––––––––––––––––––

Number of tracks: 13
Official DR value: DR13

Samplerate: 2822400 Hz / PCM Samplerate: 176400 Hz
Channels: 6
Bits per sample: 24
Bitrate: 16934 kbps
Codec: DST64
================================================================================

––––––––––––––––––––––––––––––––––––––––
Analyzed: Kraftwerk / Minimum - Maximum (Disc 2)
––––––––––––––––––––––––––––––––––––––––

DR Peak RMS Duration Track
––––––––––––––––––––––––––––––––––––––––
DR9 -4.44 dB -15.70 dB 7:42 01-Radioactivitat
DR10 -4.40 dB -15.73 dB 3:20 02-Trans-Europa Express
DR10 -4.43 dB -15.68 dB 1:42 03-Abzug
DR9 -4.27 dB -15.80 dB 4:29 04-Metall Auf Metall
DR10 -4.28 dB -15.68 dB 4:27 05-Numbers
DR9 -4.59 dB -14.27 dB 2:56 06-Computerwelt
DR9 -4.19 dB -14.64 dB 5:55 07-Home Computer
DR10 -4.52 dB -15.57 dB 2:58 08-Taschenrechner
DR9 -4.54 dB -14.83 dB 3:15 09-Dentaku
DR9 -4.36 dB -14.64 dB 7:24 10-Die Roboter
DR10 -4.36 dB -15.44 dB 4:41 11-Elektro Kardiogramm
DR9 -4.35 dB -14.53 dB 7:14 12-Aero Dynamik
DR9 -4.30 dB -15.33 dB 9:51 13-Musique Non Stop
––––––––––––––––––––––––––––––––––––––––

Number of tracks: 13
Official DR value: DR9

Samplerate: 2822400 Hz / PCM Samplerate: 176400 Hz
Channels: 2
Bits per sample: 24
Bitrate: 5645 kbps
Codec: DST64


Thanks to grillbrill!
Uncompressed SACD ISO size > 3,26 + 3,99 GB
>