Neele and The Sound Voyage - Visions (2018) [Official Digital Download]

Gesendet von: HDV
Neele and The Sound Voyage - Visions (2018) [Official Digital Download]

Neele & The Sound Voyage - Visions (2018)
FLAC (tracks) 24-bit/44,1 kHz | Time - 59:08 minutes | 688 MB
Studio Master, Official Digital Download | Artwork: Front cover

A young singer and composer who with her soft and expressive voice takes the listener into worlds full of rhythm, poetry and momentum… Surrounded by the bass, drums, piano and trombone of her extraordinary and top-class quintet (in addition to the saxophone and bass clarinet in the septet), the musical personality of the bandleader Neele Pfleiderer develops clearly and convincingly. With her compositions and arrangements the young vocalist creates a wide, sonorous and harmonious universe. The trained jazz singer goes her own way and combines spherical elements with musical diversity.

Together, the young musicians develop Neele's compositions into a harmonious sound and create a world in which the music tells its stories. On their musical journeys they make a stop in Argentina, South Africa or Australia. A true listening pleasure for jazz connoisseurs and laymen alike!



Tracklist:

01 - Noche de Papel
02 - Visions
03 - Sunman
04 - Like Sand in My Hands
05 - Gentle Piece
06 - Sindar
07 - Jetzt ist die Zeit
08 - Among the Clouds
09 - Noemi
10 - Sindar (Long Version)

Arranged & Produced by Neele Pfleiderer.
Recorded by Luca Glausen at Jazzcampus, Basel, Switzerland.
Mixed and Mastered by Hannes Kumke and Manuel Egger.

Musicians:
Neele Pfleiderer - vocals
Reto Anneler - tenor & soprano saxophone, alto flute
Simon Girard - trombone
Sebastian Strinning - bass clarinet, baritone saxophone
Fabienne Ambuehl - piano
Roberto Koch - bass
Emanuel Kuenzi - drums

Analyzed: Neele & the Sound Voyage / Visions
––––––––––––––––––––––––––––––––––––––––

DR Peak RMS Duration Track
––––––––––––––––––––––––––––––––––––––––
DR9 -0.16 dB -12.48 dB 6:20 01-Noche de Papel
DR9 -0.15 dB -12.57 dB 6:34 02-Visions
DR10 -0.28 dB -12.94 dB 3:59 03-Sunman
DR10 -0.04 dB -14.14 dB 7:23 04-Like Sand in My Hands
DR12 -0.24 dB -15.35 dB 10:17 05-Gentle Piece
DR10 -0.27 dB -11.99 dB 4:45 06-Sindar
DR9 -0.10 dB -11.38 dB 4:45 07-Jetzt ist die Zeit
DR10 -0.23 dB -11.83 dB 5:31 08-Among the Clouds
DR10 -0.20 dB -12.91 dB 4:17 09-Noemi
DR10 -0.23 dB -11.88 dB 5:18 10-Sindar (Long Version)
––––––––––––––––––––––––––––––––––––––––

Number of tracks: 10
Official DR value: DR10

Samplerate: 44100 Hz
Channels: 2
Bits per sample: 24
Bitrate: 1620 kbps
Codec: FLAC
================================================================================


Thanks to the Original customer!