Stichworte
Stichworte

Carl Philipp Emanuel Bach Edition 10CDs (2014)

Gesendet von: ArlegZ
Carl Philipp Emanuel Bach Edition 10CDs (2014)

Carl Philipp Emanuel Bach Edition 10CDs (2014)
EAC | FLAC | Image (Cue & Log) ~ 2,78 Gb | Total time: 622:37 | Scans included
Classical | Label: Deutsche Harmonia Mundi | # 88843021622 | Recorded: 1966, 1981, 1987, 1995, 2001

A good first introduction to the musical worlds of Carl Philipp Emanuel Bach is the recently released 10-CD box "C.P.E. Bach Edition ", on which the German 'harmonia mundi' has compiled high-quality recordings from the past 50 years.
 Fortepiano expert Andreas Staier gives a taste of keyboard works on the harpsichord and fortepiano - there are about 12 variations on the Folie d'Espagne, three sonatas and the great "Freye Fantasie" in F sharp minor, which are like one at the moment born improvisation works, a delirious search for expressions of the new sentimental time.
The chamber music is represented by three quartets for fortepiano, flute and viola, on the CD with double concerts one can hear the astonishing concert for harpsichord and pianoforte, which gives both instruments the opportunity to highlight their advantages and to take a great snapshot of the change Carl Philipp's time is. At the Fortepiano and the harpsichords sit Eric Lynn Kelley, Jos van Immerseel, Alan Curtis and Gustav Leonhardt.
 Somewhat overrepresented with two CDs is the organ work, in which one of the Hamburg symphonies has crept in - depending on the perspective an annoying duplication or pretty possibility of comparison: Thomas Hengelbrock plays it on the CD with two harpsichord, oboe and three Hamburg symphonies (including the thrilling fifth in B minor) with his Freiburg Baroque orchestra.
 Chamber music for flute and violin shares a CD with the pretty little, sensual Schäferkantate cantata "Phyllis and Thyrsis." Oldie among the recordings of this box is the magnificent and surprisingly fresh-sounding "Magnificat", in which 1966 Elly Ameling, Maureen Lehane, Theo Altmeyer and Roland Hermann performed alongside the Tölzer Knabenchor and the Collegium Aureum under Franzjosef Maier, initiated by the label as a pioneering ensemble for historical performance practice. Still very good to hear, even though the performance practice has developed a bit since then and especially the choral sound is much slimmer and the orchestra even more transparent. Also recorded with the 'Collegium Aureum': one of CPE Bach's cello concertos with soloist Angelica May.
 A highlight in this collection: how the young Sigiswald Kuijken with the 'Collegiujm Vocale Gent' and his, Petite Bande '"The Last Suffering of the Redeemer" makes audible - one of the great passion cantatas, composed at the beginning of CPE Bach's second Hamburg year 1769. The soloists include Barbara Schlick, Ggreta de Reyghere, Catherine Patriasz, Christoph Prégardien and Max van Egmond.

Track List & Cast:
CD1: Sonatas & Fantasies
Andreas Staier, harpsichord & fortepiano
CD2: Drey Quartetten für Fortepiano, Flöte und Bratsche
Les Adieux
CD3: Double Concertos WQ 46 & 47, Sonatina WQ 109
Collegium Aureum
CD4 & 5: Orgelkonzerte, Orgelsonaten
Rainer Oster, organ
Ensemble Parlando

CD6: Hamburger Symphonien WQ 182,3-5, Concerti WQ 165 & 43,4
Freiburger Barockorchester, Thomas Hengelbrock
CD7: Phyllis and Thirsis, Instrumental Chamber Music
Hans-Martin Linde, transverse flute
Christoph Huntgeburth, transverse flute
Jaap Schröder, violin
Beatrix Landolf, violin
Phoebe Carrai, violoncello
Rolf Junghans, fortepiano

CD8: Magnificat & Cello-Konzert WQ 171
Elly Ameling, soprano
Maureen Lahane, alto
Theo Altmeyer, tenor
Roland Hermann, bass
Angelica May, cello
Tölzer Knabenchor
Collegium Aureum, Franzjosef Maier

CD9 & 10: Die letzten Leiden des Erlösers WQ 233
Barbara Schlick & Greta de Reyghere, soprano
Catherine Patriasz, alto
Christoph Prégardien, tenor
Max van Egmond, bass
Collegium Vocale Gent
La Petite Bande
Conductor - Sigiswald Kuijken




Exact Audio Copy V1.3 from 2. September 2016

EAC extraction logfile from 8. May 2018, 13:14

Andreas Staier / Bach C.P.E. - Sonatas & Fantasias

Used drive : HL-DT-STDVDRAM GH24NS95 Adapter: 1 ID: 0

Read mode : Secure
Utilize accurate stream : Yes
Defeat audio cache : Yes
Make use of C2 pointers : No

Read offset correction : 6
Overread into Lead-In and Lead-Out : No
Fill up missing offset samples with silence : Yes
Delete leading and trailing silent blocks : No
Null samples used in CRC calculations : Yes
Used interface : Native Win32 interface for Win NT & 2000

Used output format : User Defined Encoder
Selected bitrate : 128 kBit/s
Quality : High
Add ID3 tag : No
Command line compressor : C:\Program Files\Exact Audio Copy\Flac\flac.exe
Additional command line options : -V -8 -T "Date=%year%" -T "Genre=%genre%" %source%


TOC of the extracted CD

Track | Start | Length | Start sector | End sector
––––––––––––––––––––––––––––-
1 | 0:00.00 | 6:02.05 | 0 | 27154
2 | 6:02.05 | 4:12.35 | 27155 | 46089
3 | 10:14.40 | 3:36.25 | 46090 | 62314
4 | 13:50.65 | 8:43.10 | 62315 | 101549
5 | 22:34.00 | 5:28.72 | 101550 | 126221
6 | 28:02.72 | 4:19.15 | 126222 | 145661
7 | 32:22.12 | 4:16.60 | 145662 | 164921
8 | 36:38.72 | 12:47.00 | 164922 | 222446
9 | 49:25.72 | 5:10.73 | 222447 | 245769
10 | 54:36.70 | 3:27.70 | 245770 | 261364
11 | 58:04.65 | 1:34.37 | 261365 | 268451
12 | 59:39.27 | 3:42.48 | 268452 | 285149
13 | 63:22.00 | 7:12.40 | 285150 | 317589


Range status and errors

Selected range

Filename C:\Program Files\Exact Audio Copy\Flac\Bach C.P.E. - Sonatas & Fantasias.wav

Peak level 96.9 %
Extraction speed 7.6 X
Range quality 100.0 %
Test CRC 322A2C9B
Copy CRC 322A2C9B
Copy OK

No errors occurred

End of status report

==== Log checksum 4D8A9123ECC4C6987540989CEFBE87A94F79FB07F33EF3A5DD1D352C96B9D415 ====


Exact Audio Copy V1.3 from 2. September 2016

EAC extraction logfile from 9. May 2018, 13:05

Les Adieux / Bach C.P.E. - Kammermusik

Used drive : HL-DT-STDVDRAM GH24NS95 Adapter: 1 ID: 0

Read mode : Secure
Utilize accurate stream : Yes
Defeat audio cache : Yes
Make use of C2 pointers : No

Read offset correction : 6
Overread into Lead-In and Lead-Out : No
Fill up missing offset samples with silence : Yes
Delete leading and trailing silent blocks : No
Null samples used in CRC calculations : Yes
Used interface : Native Win32 interface for Win NT & 2000

Used output format : User Defined Encoder
Selected bitrate : 128 kBit/s
Quality : High
Add ID3 tag : No
Command line compressor : C:\Program Files\Exact Audio Copy\Flac\flac.exe
Additional command line options : -V -8 -T "Date=%year%" -T "Genre=%genre%" %source%


TOC of the extracted CD

Track | Start | Length | Start sector | End sector
––––––––––––––––––––––––––––-
1 | 0:00.38 | 7:19.67 | 38 | 33029
2 | 7:20.30 | 5:14.00 | 33030 | 56579
3 | 12:34.30 | 4:33.18 | 56580 | 77072
4 | 17:07.48 | 5:43.27 | 77073 | 102824
5 | 22:51.00 | 5:10.68 | 102825 | 126142
6 | 28:01.68 | 5:02.22 | 126143 | 148814
7 | 33:04.15 | 4:37.18 | 148815 | 169607
8 | 37:41.33 | 2:50.60 | 169608 | 182417
9 | 40:32.18 | 7:57.35 | 182418 | 218227
10 | 48:29.53 | 4:35.32 | 218228 | 238884
11 | 53:05.10 | 5:17.50 | 238885 | 262709


Range status and errors

Selected range

Filename C:\Program Files\Exact Audio Copy\Flac\Bach C.P.E. - Kammermusik.wav

Peak level 84.7 %
Extraction speed 1.7 X
Range quality 100.0 %
Test CRC AC7D1904
Copy CRC AC7D1904
Copy OK

No errors occurred

End of status report

==== Log checksum DC088A3480680DEE90AA35F232D97DA1B9C2D1689CAF3E702A143923B1F7108E ====


Exact Audio Copy V1.3 from 2. September 2016

EAC extraction logfile from 9. May 2018, 13:34

Collegium Aureum / Bach C.P.E. - Double Concertos Wq 46 & 47 & Sonatina Wq 109

Used drive : HL-DT-STDVDRAM GH24NS95 Adapter: 1 ID: 0

Read mode : Secure
Utilize accurate stream : Yes
Defeat audio cache : Yes
Make use of C2 pointers : No

Read offset correction : 6
Overread into Lead-In and Lead-Out : No
Fill up missing offset samples with silence : Yes
Delete leading and trailing silent blocks : No
Null samples used in CRC calculations : Yes
Used interface : Native Win32 interface for Win NT & 2000

Used output format : User Defined Encoder
Selected bitrate : 128 kBit/s
Quality : High
Add ID3 tag : No
Command line compressor : C:\Program Files\Exact Audio Copy\Flac\flac.exe
Additional command line options : -V -8 -T "Date=%year%" -T "Genre=%genre%" %source%


TOC of the extracted CD

Track | Start | Length | Start sector | End sector
––––––––––––––––––––––––––––-
1 | 0:00.00 | 7:15.50 | 0 | 32674
2 | 7:15.50 | 7:41.12 | 32675 | 67261
3 | 14:56.62 | 4:29.38 | 67262 | 87474
4 | 19:26.25 | 15:51.07 | 87475 | 158806
5 | 35:17.32 | 9:55.65 | 158807 | 203496
6 | 45:13.22 | 7:22.48 | 203497 | 236694
7 | 52:35.70 | 5:22.20 | 236695 | 260864


Range status and errors

Selected range

Filename C:\Program Files\Exact Audio Copy\Flac\Bach C.P.E. - Double Concertos Wq 46 & 47 & Sonatina Wq 109.wav

Peak level 94.1 %
Extraction speed 7.1 X
Range quality 100.0 %
Test CRC 6AEFFABD
Copy CRC 6AEFFABD
Copy OK

No errors occurred

End of status report

==== Log checksum 86F6122C26C0885D213CD4E7AFD12933829E994E8E60FE7BF79F93DA9CAA7DD5 ====


Exact Audio Copy V1.3 from 2. September 2016

EAC extraction logfile from 9. May 2018, 14:31

Rainer Oster, Ensemble Parlando / Bach C.P.E - Organ Concertos & Sonatas (I)

Used drive : HL-DT-STDVDRAM GH24NS95 Adapter: 1 ID: 0

Read mode : Secure
Utilize accurate stream : Yes
Defeat audio cache : Yes
Make use of C2 pointers : No

Read offset correction : 6
Overread into Lead-In and Lead-Out : No
Fill up missing offset samples with silence : Yes
Delete leading and trailing silent blocks : No
Null samples used in CRC calculations : Yes
Used interface : Native Win32 interface for Win NT & 2000

Used output format : User Defined Encoder
Selected bitrate : 128 kBit/s
Quality : High
Add ID3 tag : No
Command line compressor : C:\Program Files\Exact Audio Copy\Flac\flac.exe
Additional command line options : -V -8 -T "Date=%year%" -T "Genre=%genre%" %source%


TOC of the extracted CD

Track | Start | Length | Start sector | End sector
––––––––––––––––––––––––––––-
1 | 0:00.00 | 11:13.25 | 0 | 50499
2 | 11:13.25 | 8:17.35 | 50500 | 87809
3 | 19:30.60 | 5:35.67 | 87810 | 113001
4 | 25:06.52 | 6:08.60 | 113002 | 140661
5 | 31:15.37 | 4:24.72 | 140662 | 160533
6 | 35:40.34 | 6:41.73 | 160534 | 190681
7 | 42:22.32 | 7:34.13 | 190682 | 224744
8 | 49:56.45 | 4:21.70 | 224745 | 244389


Range status and errors

Selected range

Filename C:\Program Files\Exact Audio Copy\Flac\Bach C.P.E - Organ Concertos & Sonatas (I).wav

Peak level 100.0 %
Extraction speed 6.9 X
Range quality 100.0 %
Test CRC 4B3FDD46
Copy CRC 4B3FDD46
Copy OK

No errors occurred

End of status report

==== Log checksum 45E6C31B1F8C078C033611978CD8D1BA26DC7E424BDE67DEA52448B98795BD8F ====


Exact Audio Copy V1.3 from 2. September 2016

EAC extraction logfile from 9. May 2018, 14:57

Rainer Oster, Ensemble Parlando / Bach C.P.E - Organ Concertos & Sonatas (II)

Used drive : HL-DT-STDVDRAM GH24NS95 Adapter: 1 ID: 0

Read mode : Secure
Utilize accurate stream : Yes
Defeat audio cache : Yes
Make use of C2 pointers : No

Read offset correction : 6
Overread into Lead-In and Lead-Out : No
Fill up missing offset samples with silence : Yes
Delete leading and trailing silent blocks : No
Null samples used in CRC calculations : Yes
Used interface : Native Win32 interface for Win NT & 2000

Used output format : User Defined Encoder
Selected bitrate : 128 kBit/s
Quality : High
Add ID3 tag : No
Command line compressor : C:\Program Files\Exact Audio Copy\Flac\flac.exe
Additional command line options : -V -8 -T "Date=%year%" -T "Genre=%genre%" %source%


TOC of the extracted CD

Track | Start | Length | Start sector | End sector
––––––––––––––––––––––––––––-
1 | 0:00.00 | 6:29.05 | 0 | 29179
2 | 6:29.05 | 4:30.47 | 29180 | 49476
3 | 10:59.52 | 5:30.15 | 49477 | 74241
4 | 16:29.67 | 8:38.55 | 74242 | 113146
5 | 25:08.47 | 3:44.48 | 113147 | 129994
6 | 28:53.20 | 6:32.37 | 129995 | 159431
7 | 35:25.57 | 7:39.03 | 159432 | 193859
8 | 43:04.60 | 4:39.67 | 193860 | 214851
9 | 47:44.52 | 6:56.53 | 214852 | 246104
10 | 54:41.30 | 7:03.32 | 246105 | 277861
11 | 61:44.62 | 4:26.05 | 277862 | 297816
12 | 66:10.67 | 6:05.23 | 297817 | 325214


Range status and errors

Selected range

Filename C:\Program Files\Exact Audio Copy\Flac\Bach C.P.E - Organ Concertos & Sonatas (II).wav

Peak level 100.0 %
Extraction speed 7.8 X
Range quality 100.0 %
Test CRC 101AB8DD
Copy CRC 101AB8DD
Copy OK

No errors occurred

End of status report

==== Log checksum 339312C8A9C67EB8B3E0DA9F100D153B2AB0B96A42CEE9696DEAC60F41F619DA ====


Exact Audio Copy V1.3 from 2. September 2016

EAC extraction logfile from 9. May 2018, 15:20

Freiburger Barockorchester, Thomas Hengelbrock / Bach C.P.E. - Hamburger Sinfonien, Concerti

Used drive : HL-DT-STDVDRAM GH24NS95 Adapter: 1 ID: 0

Read mode : Secure
Utilize accurate stream : Yes
Defeat audio cache : Yes
Make use of C2 pointers : No

Read offset correction : 6
Overread into Lead-In and Lead-Out : No
Fill up missing offset samples with silence : Yes
Delete leading and trailing silent blocks : No
Null samples used in CRC calculations : Yes
Used interface : Native Win32 interface for Win NT & 2000

Used output format : User Defined Encoder
Selected bitrate : 128 kBit/s
Quality : High
Add ID3 tag : No
Command line compressor : C:\Program Files\Exact Audio Copy\Flac\flac.exe
Additional command line options : -V -8 -T "Date=%year%" -T "Genre=%genre%" %source%


TOC of the extracted CD

Track | Start | Length | Start sector | End sector
––––––––––––––––––––––––––––-
1 | 0:00.00 | 2:46.50 | 0 | 12499
2 | 2:46.50 | 3:25.37 | 12500 | 27911
3 | 6:12.12 | 5:36.50 | 27912 | 53161
4 | 11:48.62 | 3:17.30 | 53162 | 67966
5 | 15:06.17 | 1:55.15 | 67967 | 76606
6 | 17:01.32 | 2:15.50 | 76607 | 86781
7 | 19:17.07 | 4:31.55 | 86782 | 107161
8 | 23:48.62 | 4:31.28 | 107162 | 127514
9 | 28:20.15 | 3:49.10 | 127515 | 144699
10 | 32:09.25 | 4:23.72 | 144700 | 164496
11 | 36:33.22 | 6:31.70 | 164497 | 193891
12 | 43:05.17 | 9:14.43 | 193892 | 235484
13 | 52:19.60 | 7:19.25 | 235485 | 268434
14 | 59:39.10 | 3:58.30 | 268435 | 286314
15 | 63:37.40 | 3:13.37 | 286315 | 300826
16 | 66:51.02 | 3:43.73 | 300827 | 317624


Range status and errors

Selected range

Filename C:\Program Files\Exact Audio Copy\Flac\Bach C.P.E. - Hamburger Sinfonien, Concerti.wav

Peak level 100.0 %
Extraction speed 7.6 X
Range quality 99.9 %
Test CRC E566FB2F
Copy CRC E566FB2F
Copy OK

No errors occurred

End of status report

==== Log checksum 752E1FB62B76C0544F5C88960F19ED13AD5BFEADD04F2221FC5C2D63A824DEE8 ====


Exact Audio Copy V1.3 from 2. September 2016

EAC extraction logfile from 9. May 2018, 17:52

H.-M. Linde, J. Schroder, R,Hofmann, N,Rogers, C.Huntgeburth, B.Landolf / Bach C.P.E. - Phyllis and Thirsis, Instrumental chamber music

Used drive : HL-DT-STDVDRAM GH24NS95 Adapter: 1 ID: 0

Read mode : Secure
Utilize accurate stream : Yes
Defeat audio cache : Yes
Make use of C2 pointers : No

Read offset correction : 6
Overread into Lead-In and Lead-Out : No
Fill up missing offset samples with silence : Yes
Delete leading and trailing silent blocks : No
Null samples used in CRC calculations : Yes
Used interface : Native Win32 interface for Win NT & 2000

Used output format : User Defined Encoder
Selected bitrate : 128 kBit/s
Quality : High
Add ID3 tag : No
Command line compressor : C:\Program Files\Exact Audio Copy\Flac\flac.exe
Additional command line options : -V -8 -T "Date=%year%" -T "Genre=%genre%" %source%


TOC of the extracted CD

Track | Start | Length | Start sector | End sector
––––––––––––––––––––––––––––-
1 | 0:00.00 | 4:09.62 | 0 | 18736
2 | 4:09.62 | 3:41.00 | 18737 | 35311
3 | 7:50.62 | 3:43.00 | 35312 | 52036
4 | 11:33.62 | 3:20.30 | 52037 | 67066
5 | 14:54.17 | 1:10.25 | 67067 | 72341
6 | 16:04.42 | 2:45.20 | 72342 | 84736
7 | 18:49.62 | 1:57.53 | 84737 | 93564
8 | 20:47.40 | 4:30.32 | 93565 | 113846
9 | 25:17.72 | 3:08.68 | 113847 | 128014
10 | 28:26.65 | 2:21.05 | 128015 | 138594
11 | 30:47.70 | 1:26.25 | 138595 | 145069
12 | 32:14.20 | 0:45.47 | 145070 | 148491
13 | 32:59.67 | 1:24.10 | 148492 | 154801
14 | 34:24.02 | 1:14.60 | 154802 | 160411
15 | 35:38.62 | 1:08.10 | 160412 | 165521
16 | 36:46.72 | 0:59.03 | 165522 | 169949
17 | 37:46.00 | 1:24.62 | 169950 | 176311
18 | 39:10.62 | 1:07.23 | 176312 | 181359
19 | 40:18.10 | 3:03.65 | 181360 | 195149
20 | 43:22.00 | 3:56.65 | 195150 | 212914
21 | 47:18.65 | 3:01.52 | 212915 | 226541
22 | 50:20.42 | 2:23.33 | 226542 | 237299


Range status and errors

Selected range

Filename C:\Program Files\Exact Audio Copy\Flac\Bach C.P.E. - Phyllis and Thirsis, Instrumental chamber music.wav

Peak level 56.9 %
Extraction speed 6.9 X
Range quality 100.0 %
Test CRC 70E3C08B
Copy CRC 70E3C08B
Copy OK

No errors occurred

End of status report

==== Log checksum 1BDBC6408188FEEED8090ADB9EA5FF65E425EA59B5DD14567F03CF6D34B345A4 ====


Exact Audio Copy V1.3 from 2. September 2016

EAC extraction logfile from 9. May 2018, 19:36

Franzjosef Maier, Collegium Aureum, Tölzer Knabenchor / Bach C.P.E. - Magnificat, Cello Concerto WQ 171

Used drive : HL-DT-STDVDRAM GH24NS95 Adapter: 1 ID: 0

Read mode : Secure
Utilize accurate stream : Yes
Defeat audio cache : Yes
Make use of C2 pointers : No

Read offset correction : 6
Overread into Lead-In and Lead-Out : No
Fill up missing offset samples with silence : Yes
Delete leading and trailing silent blocks : No
Null samples used in CRC calculations : Yes
Used interface : Native Win32 interface for Win NT & 2000

Used output format : User Defined Encoder
Selected bitrate : 128 kBit/s
Quality : High
Add ID3 tag : No
Command line compressor : C:\Program Files\Exact Audio Copy\Flac\flac.exe
Additional command line options : -V -8 -T "Date=%year%" -T "Genre=%genre%" %source%


TOC of the extracted CD

Track | Start | Length | Start sector | End sector
––––––––––––––––––––––––––––-
1 | 0:00.32 | 3:04.40 | 32 | 13871
2 | 3:04.72 | 6:15.20 | 13872 | 42016
3 | 9:20.17 | 4:27.53 | 42017 | 62094
4 | 13:47.70 | 5:25.05 | 62095 | 86474
5 | 19:13.00 | 4:26.25 | 86475 | 106449
6 | 23:39.25 | 6:38.32 | 106450 | 136331
7 | 30:17.57 | 4:17.70 | 136332 | 155676
8 | 34:35.52 | 1:58.55 | 155677 | 164581
9 | 36:34.32 | 6:26.50 | 164582 | 193581
10 | 43:01.07 | 9:49.38 | 193582 | 237794
11 | 52:50.45 | 8:46.25 | 237795 | 277269
12 | 61:36.70 | 6:47.37 | 277270 | 307831


Range status and errors

Selected range

Filename C:\Program Files\Exact Audio Copy\Flac\Bach C.P.E. - Magnificat, Cello Concerto WQ 171.wav

Peak level 99.0 %
Extraction speed 1.8 X
Range quality 100.0 %
Test CRC DD2DCAED
Copy CRC DD2DCAED
Copy OK

No errors occurred

End of status report

==== Log checksum FDA8F3E8F676EC0A92A2BDBB6A6FD6D680B6C17924D465EDA4EE00A25DF5A43B ====


Exact Audio Copy V1.3 from 2. September 2016

EAC extraction logfile from 9. May 2018, 20:57

Sigiswald Kuijken, Collegium Vocale Gent, La Petite Bande / Bach C.P.E. - Die letzten Leiden des Erlösers Wq 233 (I)

Used drive : HL-DT-STDVDRAM GH24NS95 Adapter: 1 ID: 0

Read mode : Secure
Utilize accurate stream : Yes
Defeat audio cache : Yes
Make use of C2 pointers : No

Read offset correction : 6
Overread into Lead-In and Lead-Out : No
Fill up missing offset samples with silence : Yes
Delete leading and trailing silent blocks : No
Null samples used in CRC calculations : Yes
Used interface : Native Win32 interface for Win NT & 2000

Used output format : User Defined Encoder
Selected bitrate : 128 kBit/s
Quality : High
Add ID3 tag : No
Command line compressor : C:\Program Files\Exact Audio Copy\Flac\flac.exe
Additional command line options : -V -8 -T "Date=%year%" -T "Genre=%genre%" %source%


TOC of the extracted CD

Track | Start | Length | Start sector | End sector
––––––––––––––––––––––––––––-
1 | 0:00.33 | 5:04.47 | 33 | 22879
2 | 5:05.05 | 6:29.60 | 22880 | 52114
3 | 11:34.65 | 4:12.33 | 52115 | 71047
4 | 15:47.23 | 6:40.10 | 71048 | 101057
5 | 22:27.33 | 1:26.57 | 101058 | 107564
6 | 23:54.15 | 1:57.65 | 107565 | 116404
7 | 25:52.05 | 5:24.65 | 116405 | 140769
8 | 31:16.70 | 11:54.50 | 140770 | 194369
9 | 43:11.45 | 1:19.18 | 194370 | 200312
10 | 44:30.63 | 4:47.07 | 200313 | 221844
11 | 49:17.70 | 0:57.45 | 221845 | 226164
12 | 50:15.40 | 10:07.03 | 226165 | 271692


Range status and errors

Selected range

Filename C:\Program Files\Exact Audio Copy\Flac\Bach C.P.E. - Die letzten Leiden des Erlösers Wq 233 (I).wav

Peak level 76.7 %
Extraction speed 1.8 X
Range quality 100.0 %
Test CRC 07333FE1
Copy CRC 07333FE1
Copy OK

No errors occurred

End of status report

==== Log checksum B95D51C220E1AFE24336F748886DBD47553E97374476CC69E4CCBDF79758B4C6 ====


Exact Audio Copy V1.3 from 2. September 2016

EAC extraction logfile from 9. May 2018, 22:11

Sigiswald Kuijken, Collegium Vocale Gent, La Petite Bande / Bach C.P.E. - Die letzten Leiden des Erlösers Wq 233 (II)

Used drive : HL-DT-STDVDRAM GH24NS95 Adapter: 1 ID: 0

Read mode : Secure
Utilize accurate stream : Yes
Defeat audio cache : Yes
Make use of C2 pointers : No

Read offset correction : 6
Overread into Lead-In and Lead-Out : No
Fill up missing offset samples with silence : Yes
Delete leading and trailing silent blocks : No
Null samples used in CRC calculations : Yes
Used interface : Native Win32 interface for Win NT & 2000

Used output format : User Defined Encoder
Selected bitrate : 128 kBit/s
Quality : High
Add ID3 tag : No
Command line compressor : C:\Program Files\Exact Audio Copy\Flac\flac.exe
Additional command line options : -V -8 -T "Date=%year%" -T "Genre=%genre%" %source%


TOC of the extracted CD

Track | Start | Length | Start sector | End sector
––––––––––––––––––––––––––––-
1 | 0:00.33 | 4:02.22 | 33 | 18204
2 | 4:02.55 | 13:47.68 | 18205 | 80297
3 | 17:50.48 | 0:43.52 | 80298 | 83574
4 | 18:34.25 | 6:42.63 | 83575 | 113787
5 | 25:17.13 | 6:00.25 | 113788 | 140812
6 | 31:17.38 | 1:55.50 | 140813 | 149487
7 | 33:13.13 | 1:33.60 | 149488 | 156522
8 | 34:46.73 | 3:25.17 | 156523 | 171914
9 | 38:12.15 | 0:21.55 | 171915 | 173544
10 | 38:33.70 | 1:46.43 | 173545 | 181537
11 | 40:20.38 | 1:37.55 | 181538 | 188867
12 | 41:58.18 | 1:41.45 | 188868 | 196487
13 | 43:39.63 | 4:12.37 | 196488 | 215424
14 | 47:52.25 | 11:30.20 | 215425 | 267194


Range status and errors

Selected range

Filename C:\Program Files\Exact Audio Copy\Flac\Bach C.P.E. - Die letzten Leiden des Erlösers Wq 233 (II).wav

Peak level 85.0 %
Extraction speed 1.7 X
Range quality 100.0 %
Test CRC 7375F8EC
Copy CRC 7375F8EC
Copy OK

No errors occurred

End of status report

==== Log checksum AEBA9BFC2D828A3C701575C6EB364FC9248CB332590E7C02A646FD3FC3D65229 ====


Carl Philipp Emanuel Bach Edition 10CDs (2014)