Stichworte
Stichworte

Kiri Te Kanawa, Hagegard, Wiener Philharmoniker, Ulf Schirmer - Richard Strauss: Capriccio (1996) 2CD, Reissue 2009 [Re-Up]

Gesendet von: Designol
Kiri Te Kanawa, Hagegard, Wiener Philharmoniker, Ulf Schirmer - Richard Strauss: Capriccio (1996) 2CD, Reissue 2009 [Re-Up]

Richard Strauss - Capriccio (1996) 2CD, Reissue 2009
Kiri Te Kanawa, soprano; Håkan Hagegård, baritone
Wiener Philharmoniker, conducted by Ulf Schirmer

EAC | FLAC | Image (Cue&Log) ~ 596 Mb | Mp3 (CBR320) ~ 328 Mb | Scans included
Genre: Classical, Opera | Label: DECCA | # 478 0333 | Time: 02:19:18

The discography of Strauss’s last opera is not exactly crowded, but the two existing accounts provide formidable competition for any newcomer. First there was Sawallisch, conducting the Philharmonia for EMI in 1957 (unfortunately in mono) and a cast led by Schwarzkopf, Ludwig and Fischer-Dieskau. Then, in 1971, came that other supreme Straussian, Karl Böhm, with Janowitz, Troyanos and (again) Fischer-Dieskau, recorded in Munich for DG. The new Decca set brings together many of today’s leading exponents of Strauss’s roles, dominated, for me, by the unsurpassed Clairon of Brigitte Fassbaender, now alas, never to be heard on stage again following her retirement. Heilmann and Bär make an ardent pair of rival suitors, Hagegård an admirable Count and Halem a sonorous, characterful La Roche. (There is a delightful link with the past history of the opera in the person of Hans Hotter: he sang Olivier in the 1942 premiere, La Roche in the 1957 Sawallisch set, and here, at 84 when recorded in December 1993, a one-line cameo as a servant.) For many, though, the set’s desirability will rest on Te Kanawa’s Countess. She may not project the words with the finesse or acuity of a Schwarzkopf, but she injects the role with the right degree of wit, vulnerability and vocal suavity. Schirmer conducts the Vienna Philharmonic in a performance of great liveliness and attention to detail. In all, a worthy addition to a select band of recordings.

Review by Matthew Rye, BBC Music Magazine

Kiri Te Kanawa, Hagegard, Wiener Philharmoniker, Ulf Schirmer - Richard Strauss: Capriccio (1996) 2CD, Reissue 2009 [Re-Up]



Kiri Te Kanawa, Hagegard, Wiener Philharmoniker, Ulf Schirmer - Richard Strauss: Capriccio (1996) 2CD, Reissue 2009 [Re-Up]



Kiri Te Kanawa, Hagegard, Wiener Philharmoniker, Ulf Schirmer - Richard Strauss: Capriccio (1996) 2CD, Reissue 2009 [Re-Up]



Performers:

Kiri Te Kanawa (Countess), Hakan Hagegård (Count), Uwe Heilmann (Flamand), Olaf Bär (Olivier),
Viktor von Halem (La Roche), Brigitte Fassbaender (Clairon), Werner Hollweg (Taupe),
Anna Rita Taliento (Italian Soprano), Roberto Saccà (Italian Tenor),
Gottfried Hornik (Majordomo), Hans Hotter (Servant)

Wiener Philharmoniker, Ulf Schirmer

Tracklist:

CD1:

01. Einleitung (06:23)
02. Bezaubernd ist sie heute wieder! (02:47)
03. Bei sanfter Musik schlaeft sich's am besten (05:47)
04. Der strom der Toene trug mich fort (04:41)
05. Die Buehne ist fertig (01:31)
06. Sie ist doch gekommen! Du hast es erreicht (02:46)
07. Ihr geht. Entliess Euch schon die Macht (01:42)
08. Kein andres, das mir so im Herzen loht (04:54)
09. Lassen Sie ihn gewaehren (04:28)
10. Kein andres, das mir so im Herzen loht (04:08)
11. Wie schoen die Worte, kaum kenn' ich sie wieder! (02:05)
12. Verraten hab' ich meine Gefuehle! (05:59)
13. Sie erzaehlten beredsam von Eurem Empfinden (03:32)
14. Welch' koestliche Begegnung! (02:54)
15. Wir kehren zurueck in die Welt des Salons (02:18)
16. I. Tanz : Passepied (Was sagt Ihr!) (02:26)
17. II Tanz : Gigue (Ich bin fest entschlossen, auf keinen Fall mehr) (02:03)
18. III. Tanz: Gavotte (01:39)

CD2:

01. Eure Kunst entzueckt und begeistert mich; Fuge (00:54)
02. Tanz und Musik stehen im Bann des Rhytmus (04:21)
03. Eine Oper ist ein absurdes Ding (04:10)
04. Addio, mia vita (03:27)
05. Darf ich Sie nach Paris zurueckbringen (03:07)
06. Sie lachen ihn aus und er meint es so ernst (02:29)
07. Aber so hoert doch! Es kommt ja ganz anders (02:36)
08. Hola, ihr Streiter in Apoll! (09:14)
09. La Roche, du bist gross, du bist monumental! (05:21)
10. Das is mehr als eine Versoehnung (02:54)
11. Waehlt doch einen Vorwurf, der Konflikte schildert, die auch uns bewe (04:47)
12. Gut in eure Maentel gehuellt (02:31)
13. Das war ein schoener Laerm (03:53)
14. Herr Direktor… (04:14)
15. Andante con moto (03:50)
16. Wo ist mein Bruder? (03:20)
17. Kein andres, das mir so im Herzen loht (09:27)
18. Du Spiegelbild der verliebten Madeleine (06:19)


Exact Audio Copy V1.0 beta 2 from 29. April 2011

EAC extraction logfile from 16. February 2012, 3:31

Kiri Te Kanawa, Hagegard, Heilmann etc. Wiener Philharmoniker, U. Schirmer / R. Strauss - Capriccio CD1

Used drive : ASUS DRW-24B1ST Adapter: 2 ID: 0

Read mode : Secure
Utilize accurate stream : Yes
Defeat audio cache : Yes
Make use of C2 pointers : No

Read offset correction : 6
Overread into Lead-In and Lead-Out : No
Fill up missing offset samples with silence : Yes
Delete leading and trailing silent blocks : No
Null samples used in CRC calculations : Yes
Used interface : Native Win32 interface for Win NT & 2000

Used output format : User Defined Encoder
Selected bitrate : 128 kBit/s
Quality : High
Add ID3 tag : Yes
Command line compressor : G:\Program Files\Exact Audio Copy\Flac\flac.exe
Additional command line options : -V -8 -T "Date=%year%" -T "Genre=%genre%" %source%


TOC of the extracted CD

Track | Start | Length | Start sector | End sector
––––––––––––––––––––––––––––-
1 | 0:00.33 | 6:23.00 | 33 | 28757
2 | 6:23.33 | 2:47.00 | 28758 | 41282
3 | 9:10.33 | 5:47.07 | 41283 | 67314
4 | 14:57.40 | 4:41.55 | 67315 | 88444
5 | 19:39.20 | 1:31.58 | 88445 | 95327
6 | 21:11.03 | 2:46.40 | 95328 | 107817
7 | 23:57.43 | 1:42.52 | 107818 | 115519
8 | 25:40.20 | 4:54.68 | 115520 | 137637
9 | 30:35.13 | 4:28.30 | 137638 | 157767
10 | 35:03.43 | 4:08.50 | 157768 | 176417
11 | 39:12.18 | 2:05.52 | 176418 | 185844
12 | 41:17.70 | 5:59.63 | 185845 | 212832
13 | 47:17.58 | 3:32.45 | 212833 | 228777
14 | 50:50.28 | 2:54.67 | 228778 | 241894
15 | 53:45.20 | 2:18.50 | 241895 | 252294
16 | 56:03.70 | 2:26.53 | 252295 | 263297
17 | 58:30.48 | 2:03.65 | 263298 | 272587
18 | 60:34.38 | 1:39.57 | 272588 | 280069


Range status and errors

Selected range

Filename F:\opera & vocal\Strauss - Capriccio (Kiri Te Kanawa)\Kiri Te Kanawa, Hagegard, Heilmann etc. Wiener Philharmoniker, U. Schirmer - R. Strauss - Capriccio CD1.wav

Peak level 94.7 %
Extraction speed 6.0 X
Range quality 100.0 %
Test CRC 3A5A5D10
Copy CRC 3A5A5D10
Copy OK

No errors occurred


AccurateRip summary

Track 1 accurately ripped (confidence 1) [D8634411] (AR v1)
Track 2 accurately ripped (confidence 1) [25758129] (AR v1)
Track 3 accurately ripped (confidence 1) [9330234C] (AR v1)
Track 4 accurately ripped (confidence 1) [75BEF392] (AR v1)
Track 5 accurately ripped (confidence 1) [8FF9BDE7] (AR v1)
Track 6 accurately ripped (confidence 1) [2A567702] (AR v1)
Track 7 accurately ripped (confidence 1) [29D9EB70] (AR v1)
Track 8 accurately ripped (confidence 1) [5C133DED] (AR v1)
Track 9 accurately ripped (confidence 1) [0946BCB1] (AR v1)
Track 10 accurately ripped (confidence 1) [0AD6350F] (AR v1)
Track 11 accurately ripped (confidence 1) [F31D9117] (AR v1)
Track 12 accurately ripped (confidence 1) [77C9614D] (AR v1)
Track 13 accurately ripped (confidence 1) [2235B972] (AR v1)
Track 14 accurately ripped (confidence 1) [7591E11A] (AR v1)
Track 15 accurately ripped (confidence 1) [AA0A1B60] (AR v1)
Track 16 accurately ripped (confidence 1) [3060E4B7] (AR v1)
Track 17 accurately ripped (confidence 1) [EE49C5FA] (AR v1)
Track 18 accurately ripped (confidence 1) [93447E90] (AR v1)

All tracks accurately ripped

End of status report

==== Log checksum 5B2B2456EC6BAC8278D537DB22B483FE08D9EDB5231C28DC1F56C138EDA6F0D5 ====

foobar2000 1.2 / Dynamic Range Meter 1.1.1
log date: 2015-08-29 12:50:05

––––––––––––––––––––––––––––––––––––––––
Analyzed: Kiri Te Kanawa, Hagegard, Heilmann etc. Wiener Philharmoniker, U. Schirmer / R. Strauss - Capriccio CD1
––––––––––––––––––––––––––––––––––––––––

DR Peak RMS Duration Track
––––––––––––––––––––––––––––––––––––––––
DR14 -15.24 dB -33.71 dB 6:23 01-Einleitung
DR17 -15.08 dB -39.61 dB 2:47 02-Bezaubernd ist sie heute wieder!
DR17 -0.47 dB -25.68 dB 5:47 03-Bei sanfter Musik schlaeft sich's am besten
DR14 -3.64 dB -24.24 dB 4:42 04-Der strom der Toene trug mich fort
DR16 -4.83 dB -25.90 dB 1:32 05-Die Buehne ist fertig
DR16 -2.21 dB -26.22 dB 2:47 06-Sie ist doch gekommen! Du hast es erreicht
DR19 -6.22 dB -34.80 dB 1:43 07-Ihr geht. Entliess Euch schon die Macht
DR17 -2.86 dB -28.35 dB 4:55 08-Kein andres, das mir so im Herzen loht
DR15 -2.05 dB -23.74 dB 4:28 09-Lassen Sie ihn gewaehren
DR14 -4.09 dB -25.25 dB 4:09 10-Kein andres, das mir so im Herzen loht
DR14 -3.47 dB -23.84 dB 2:06 11-Wie schoen die Worte, kaum kenn' ich sie wieder!
DR13 -4.31 dB -24.29 dB 6:00 12-Verraten hab' ich meine Gefuehle!
DR14 -4.64 dB -25.52 dB 3:33 13-Sie erzaehlten beredsam von Eurem Empfinden
DR15 -4.99 dB -26.07 dB 2:55 14-Welch' koestliche Begegnung!
DR17 -2.10 dB -27.68 dB 2:19 15-Wir kehren zurueck in die Welt des Salons
DR15 -9.10 dB -32.27 dB 2:27 16-I. Tanz : Passepied (Was sagt Ihr!)
DR15 -7.56 dB -29.57 dB 2:04 17-II Tanz : Gigue (Ich bin fest entschlossen, auf keinen Fall mehr)
DR14 -9.07 dB -37.79 dB 1:40 18-III. Tanz: Gavotte
––––––––––––––––––––––––––––––––––––––––

Number of tracks: 18
Official DR value: DR15

Samplerate: 44100 Hz
Channels: 2
Bits per sample: 16
Bitrate: 579 kbps
Codec: FLAC
================================================================================


Exact Audio Copy V1.0 beta 2 from 29. April 2011

EAC extraction logfile from 18. February 2012, 5:55

Kiri Te Kanawa, Hagegard, Heilmann etc. Wiener Philharmoniker, U. Schirmer / R. Strauss - Capriccio CD2

Used drive : ASUS DRW-24B1ST Adapter: 2 ID: 0

Read mode : Secure
Utilize accurate stream : Yes
Defeat audio cache : Yes
Make use of C2 pointers : No

Read offset correction : 6
Overread into Lead-In and Lead-Out : No
Fill up missing offset samples with silence : Yes
Delete leading and trailing silent blocks : No
Null samples used in CRC calculations : Yes
Used interface : Native Win32 interface for Win NT & 2000

Used output format : User Defined Encoder
Selected bitrate : 128 kBit/s
Quality : High
Add ID3 tag : Yes
Command line compressor : G:\Program Files\Exact Audio Copy\Flac\flac.exe
Additional command line options : -V -8 -T "Date=%year%" -T "Genre=%genre%" %source%


TOC of the extracted CD

Track | Start | Length | Start sector | End sector
––––––––––––––––––––––––––––-
1 | 0:00.33 | 0:54.62 | 33 | 4144
2 | 0:55.20 | 4:21.50 | 4145 | 23769
3 | 5:16.70 | 4:10.58 | 23770 | 42577
4 | 9:27.53 | 3:27.17 | 42578 | 58119
5 | 12:54.70 | 3:07.38 | 58120 | 72182
6 | 16:02.33 | 2:29.65 | 72183 | 83422
7 | 18:32.23 | 2:36.50 | 83423 | 95172
8 | 21:08.73 | 9:14.45 | 95173 | 136767
9 | 30:23.43 | 5:21.20 | 136768 | 160862
10 | 35:44.63 | 2:54.32 | 160863 | 173944
11 | 38:39.20 | 4:47.63 | 173945 | 195532
12 | 43:27.08 | 2:31.37 | 195533 | 206894
13 | 45:58.45 | 3:53.48 | 206895 | 224417
14 | 49:52.18 | 4:14.57 | 224418 | 243524
15 | 54:07.00 | 3:50.73 | 243525 | 260847
16 | 57:57.73 | 3:20.22 | 260848 | 275869
17 | 61:18.20 | 9:27.25 | 275870 | 318419
18 | 70:45.45 | 6:19.38 | 318420 | 346882


Range status and errors

Selected range

Filename F:\opera & vocal\Strauss - Capriccio (Kiri Te Kanawa)\Kiri Te Kanawa, Hagegard, Heilmann etc. Wiener Philharmoniker, U. Schirmer - R. Strauss - Capriccio CD2.wav

Peak level 95.8 %
Extraction speed 6.7 X
Range quality 99.9 %
Test CRC 6DC2CBC4
Copy CRC 6DC2CBC4
Copy OK

No errors occurred


AccurateRip summary

Track 1 not present in database
Track 2 not present in database
Track 3 not present in database
Track 4 not present in database
Track 5 not present in database
Track 6 not present in database
Track 7 not present in database
Track 8 not present in database
Track 9 not present in database
Track 10 not present in database
Track 11 not present in database
Track 12 not present in database
Track 13 not present in database
Track 14 not present in database
Track 15 not present in database
Track 16 not present in database
Track 17 not present in database
Track 18 not present in database

None of the tracks are present in the AccurateRip database

End of status report

==== Log checksum BA1F823802303CDA761F5C704E218BCC55E635890EC82D648BE96C878402CF2E ====

foobar2000 1.2 / Dynamic Range Meter 1.1.1
log date: 2015-08-29 12:50:27

––––––––––––––––––––––––––––––––––––––––
Analyzed: Kiri Te Kanawa, Hagegard, Heilmann etc. Wiener Philharmoniker, U. Schirmer / R. Strauss - Capriccio CD2
––––––––––––––––––––––––––––––––––––––––

DR Peak RMS Duration Track
––––––––––––––––––––––––––––––––––––––––
DR13 -7.32 dB -29.68 dB 0:55 01-Eure Kunst entzueckt und begeistert mich; Fuge
DR15 -4.26 dB -24.92 dB 4:22 02-Tanz und Musik stehen im Bann des Rhytmus
DR15 -2.66 dB -23.37 dB 4:11 03-Eine Oper ist ein absurdes Ding
DR12 -4.12 dB -23.44 dB 3:27 04-Addio, mia vita
DR16 -3.36 dB -25.43 dB 3:08 05-Darf ich Sie nach Paris zurueckbringen
DR14 -2.29 dB -22.53 dB 2:30 06-Sie lachen ihn aus und er meint es so ernst
DR11 -0.36 dB -16.87 dB 2:37 07-Aber so hoert doch! Es kommt ja ganz anders
DR17 -1.73 dB -24.04 dB 9:15 08-Hola, ihr Streiter in Apoll!
DR14 -1.01 dB -20.08 dB 5:21 09-La Roche, du bist gross, du bist monumental!
DR17 -0.70 dB -23.49 dB 2:54 10-Das is mehr als eine Versoehnung
DR16 -2.60 dB -26.33 dB 4:48 11-Waehlt doch einen Vorwurf, der Konflikte schildert, die auch uns bewe
DR14 -8.56 dB -27.32 dB 2:31 12-Gut in eure Maentel gehuellt
DR20 -3.52 dB -29.33 dB 3:54 13-Das war ein schoener Laerm
DR16 -9.91 dB -31.29 dB 4:15 14-Herr Direktor…
DR11 -6.65 dB -24.34 dB 3:51 15-Andante con moto
DR14 -5.46 dB -26.38 dB 3:20 16-Wo ist mein Bruder?
DR13 -1.96 dB -21.74 dB 9:27 17-Kein andres, das mir so im Herzen loht
DR13 -9.57 dB -29.15 dB 6:20 18-Du Spiegelbild der verliebten Madeleine
––––––––––––––––––––––––––––––––––––––––

Number of tracks: 18
Official DR value: DR15

Samplerate: 44100 Hz
Channels: 2
Bits per sample: 16
Bitrate: 590 kbps
Codec: FLAC
================================================================================

Kiri Te Kanawa, Hagegard, Wiener Philharmoniker, Ulf Schirmer - Richard Strauss: Capriccio (1996) 2CD, Reissue 2009 [Re-Up]

Kiri Te Kanawa, Hagegard, Wiener Philharmoniker, Ulf Schirmer - Richard Strauss: Capriccio (1996) 2CD, Reissue 2009 [Re-Up]

All thanks to original releaser - Keikobad

More interesting music in My Blog