Philippe Herreweghe, Collegium Vocale Gent - Bach: Magnificat BWV 243 & 243a & Cantatas BWV 8, 63, 80, 125, 138 (2010)

Gesendet von: ArlegZ
Philippe Herreweghe, Collegium Vocale Gent - Bach: Magnificat BWV 243 & 243a & Cantatas BWV 8, 63, 80, 125, 138 (2010)

Philippe Herreweghe, Collegium Vocale Gent - Bach: Magnificat BWV 243 & 243a & Cantatas BWV 8, 63, 80, 125, 138 (2010)
EAC | FLAC | Image (Cue & Log) ~ 777 Mb | Total time: 61:49+53:06+58:40 | Scans included
Classical | Label: Harmonia Mundi | # HML 5908360.62 | Recorded: 1990, 1997, 2002

"It is…a fine pairing of two of Bach’s more extroverted works, in which Herreweghe delves beneath the masculine surface of the Magnificat to find its more tender interior and boldly explores Bach’s expansion of Luther’s great Reformation hymn, Ein feste Burg ist unser Gott. For whatever reason, Cantata 80 seems to have lost a degree of popularity lately, and it’s good to hear it again, complete with W. F. Bach’s interpolated trumpets."
– George Chien

"The reason to buy this set is for the Magnificat, the original but rarely recorded E-flat version from 1723, which certainly gets its most exciting and likely most enduring performance on disc, an agreeable combination of first-rate soloists, matchless choral singing, and unassailable playing from Philippe Herreweghe's period-instrument band… [Y]ou're treated to bracing but not rushed tempos, infectiously energetic and technically solid contributions from the chorus, and an intelligently paced flow from movement to movement that once again shows Herreweghe's complete command of this repertoire… No matter how you cut it, this is a treasurable collection, and no Bach fan should be without this Magnificat–it's that good."
–David Vernier

"…Philippe Herreweghe’s latest set of Bach cantatas is also highly commendable. The three works here explore different attitudes to death, a topic that inspired some of Bach’s loveliest music – such as BWV 8’s opening movement, sumptuously done by Collegium Vocale, and the alto aria ‘Ich will auch’, movingly sung by Ingeborg Danz. Herreweghe, like [Masaaki] Suzuki, remains sensitive both to the music’s beauty and to its deeper, spiritual intent."
– BBC Music Magazine

Performer:
Sopranos: Carolyn Sampson, Barbara Schlick, Agnes Mellon, Deborah York
Altos: Ingeborg Danz, Gérard Lesne
Tenors: Mark Padmore, Howard Crook
Basses: Peter Kooy Sebastian Noack
La Chapelle Royale & Collegium Vocale Gent
Conductor - Philippe Herreweghe

Track List:
CD1:
Cantata "Christen, ätzet diesen Tag" BWV 63:
01. Choral: Christen, ätzet diesen Tag
02. Recitativo (alto): O selger Tag! O ungemeines Heute
03. Aria (soprano): Gott, du hast es wohl gefüget
04. Recitativo (tenor): So kehret sich nun heut
05. Aria (tenor): Ruft und fleht den Himmel an
06. Recitativo (bass): Verdoppelt euch demnach
07. Choral: Höchster, schau in Gnaden an
Magnificat in Es-Dur BWV 243a:
08. Chorus: Magnificat anima mea
09. Aria (soprano): Et exultavit spiritus meus
10. Choral: Vom Himmel hoch
11. Aria (soprano): Quia respexit humilitatem
12. Chorus: Omnes generationes
13. Aria (bass): Quia fecit mihi magna
14. Chorus: Freut euch und jubiliert
15. Duo (alto, tenor): Et misericordia
16. Chorus: Fecit potentiam
17. Chorus: Gloria In excelsis Deo
18. Aria (tenor): Deposuit potentes
19. Aria (alto): Esurientes implevit bonis
20. Duo (soprano, bass): Virga Jesse floruit
21. Trio (sopranos, alto): Suscepit Israel
22. Chorus: Sicut locutus est
23. Chorus: Gloria Patri
CD2:
Magnificat BWV 243:
01. Chorus: Magnificat anima mea Dominum
02. Aria (soprano 2): Et exultavit spiritus meus
03. Aria (soprano 1): Quia respexit humilitatem
04. Chorus: Omnes generationes
05. Aria (basse): Quia fecit mihi magna
06. Duo (alto, tenor): Et eisericordia eius
07. Chorus: Fecit potentiam
08. Aria (tenor): Deposuit potentes
09. Aria (alto): Esurientes
10. Trio (sopranos, alto): Suscepit Israel
11. Chorus: Sicut locutus est
12. Chorus: Gloria
Cantata "Ein feste Burg ist unser Gott” BWV 80:
13. Choral: Eine feste Burg ist unser Gott
14. Aria (soprano, basse): Alles, was von Gott geboren
15. Recitativo (basse): Erwäge doch
16. Aria (soprano): Komm in mein Herzenshaus
17. Choral: Und wenn die Welt voll Teufel wär
18. Recitativo (tenor): So stehe dann
19. Duetto (alto, tenor): Wie selig sind doch die
20. Choral: Das Wort sie sollen lassen stahn
CD3:
Cantata "Liebster Gott, wenn werd ich sterben” BWV 8:
01. Coro: Liebster Gott, wenn werd ich sterben
02. Aria (tenor): Was willst du dich, mein Geist, entsetzen
03. Recitativo (alto): Zwar fühlt mein schwaches Herz
04. Aria (basse): Doch weichet, ihr tollen, vergeblichen Sorgen
05. Recitativo (soprano): Behalte nur, o Welt, das Meine
06. Choral: Herrscher über Tod und Leben
Cantata "Mit Fried und Freud ich fahr dahin” BWV 125:
07. Coro: Mit Fried und Freud ich fahr dahin
08. Aria (alto): Ich will auch mit gebrochnen Augen
09. Recitativo (basse): O Wunder, daß ein Herz
10. Aria Duetto (tenor, basse): Ein unbegreiflich Licht erfüllt
11. Recitativo (alto): O unerschöpfter Schatz der Güte
12. Choral: Er ist das Heil und selig Licht
Cantata "Warum betrübst du dich, mein Herz” BWV 138:
13. Choral e Recitativo: Warum betrübst du dich, mein Herz
14. Recitativo (basse): Ich bin veracht’
15. Choral e Recitativo: Er kann und will dich lassen nicht
16. Recitativo (tenor): Ach süßer Trost
17. Aria (basse): Auf Gott steht meine Zuversicht
18. Recitativo (alto): Ei nun!
19. Choral: Weil du mein Gott und Vater bist


Exact Audio Copy V1.3 from 2. September 2016

EAC extraction logfile from 14. February 2018, 21:09

Philippe Herreweghe, Collegium Vocale Gent / Bach - Cantata BWV 63, Magnificat BWV 243a

Used drive : HL-DT-STDVDRAM GH24NS95 Adapter: 1 ID: 0

Read mode : Secure
Utilize accurate stream : Yes
Defeat audio cache : Yes
Make use of C2 pointers : No

Read offset correction : 6
Overread into Lead-In and Lead-Out : No
Fill up missing offset samples with silence : Yes
Delete leading and trailing silent blocks : No
Null samples used in CRC calculations : Yes
Used interface : Native Win32 interface for Win NT & 2000

Used output format : User Defined Encoder
Selected bitrate : 128 kBit/s
Quality : High
Add ID3 tag : No
Command line compressor : C:\Program Files\Exact Audio Copy\Flac\flac.exe
Additional command line options : -V -8 -T "Date=%year%" -T "Genre=%genre%" %source%


TOC of the extracted CD

Track | Start | Length | Start sector | End sector
––––––––––––––––––––––––––––-
1 | 0:00.00 | 5:23.57 | 0 | 24281
2 | 5:23.57 | 2:31.65 | 24282 | 35671
3 | 7:55.47 | 6:57.17 | 35672 | 66963
4 | 14:52.64 | 0:52.73 | 66964 | 70936
5 | 15:45.62 | 3:45.58 | 70937 | 87869
6 | 19:31.45 | 1:06.12 | 87870 | 92831
7 | 20:37.57 | 6:51.35 | 92832 | 123691
8 | 27:29.17 | 2:57.50 | 123692 | 137016
9 | 30:26.67 | 2:23.47 | 137017 | 147788
10 | 32:50.39 | 1:47.27 | 147789 | 155840
11 | 34:37.66 | 2:29.23 | 155841 | 167038
12 | 37:07.14 | 1:19.10 | 167039 | 172973
13 | 38:26.24 | 2:00.16 | 172974 | 181989
14 | 40:26.40 | 1:16.24 | 181990 | 187713
15 | 41:42.64 | 3:16.30 | 187714 | 202443
16 | 44:59.19 | 1:50.44 | 202444 | 210737
17 | 46:49.63 | 1:08.09 | 210738 | 215846
18 | 47:57.72 | 2:04.57 | 215847 | 225203
19 | 50:02.54 | 2:54.60 | 225204 | 238313
20 | 52:57.39 | 3:19.17 | 238314 | 253255
21 | 56:16.56 | 1:39.53 | 253256 | 260733
22 | 57:56.34 | 1:28.37 | 260734 | 267370
23 | 59:24.71 | 2:11.63 | 267371 | 277258


Range status and errors

Selected range

Filename C:\Program Files\Exact Audio Copy\Flac\Bach - Cantata BWV 63, Magnificat BWV 243a.wav

Peak level 100.0 %
Extraction speed 3.1 X
Range quality 100.0 %
Test CRC 1CBFF75F
Copy CRC 1CBFF75F
Copy OK

No errors occurred

End of status report

==== Log checksum 47A8BED0A39502A8549465B17F7E8F1FFE83A66E2FA03C453BB3B1EF13E29F1D ====


Exact Audio Copy V1.3 from 2. September 2016

EAC extraction logfile from 14. February 2018, 22:17

Philippe Herreweghe, Collegium Vocale Gent / Bach - Magnificat BWV 243, Cantata BWV 80

Used drive : HL-DT-STDVDRAM GH24NS95 Adapter: 1 ID: 0

Read mode : Secure
Utilize accurate stream : Yes
Defeat audio cache : Yes
Make use of C2 pointers : No

Read offset correction : 6
Overread into Lead-In and Lead-Out : No
Fill up missing offset samples with silence : Yes
Delete leading and trailing silent blocks : No
Null samples used in CRC calculations : Yes
Used interface : Native Win32 interface for Win NT & 2000

Used output format : User Defined Encoder
Selected bitrate : 128 kBit/s
Quality : High
Add ID3 tag : No
Command line compressor : C:\Program Files\Exact Audio Copy\Flac\flac.exe
Additional command line options : -V -8 -T "Date=%year%" -T "Genre=%genre%" %source%


TOC of the extracted CD

Track | Start | Length | Start sector | End sector
––––––––––––––––––––––––––––-
1 | 0:00.32 | 3:00.60 | 32 | 13591
2 | 3:01.17 | 2:31.60 | 13592 | 24976
3 | 5:33.02 | 2:41.58 | 24977 | 37109
4 | 8:14.60 | 1:18.65 | 37110 | 43024
5 | 9:33.50 | 2:05.10 | 43025 | 52409
6 | 11:38.60 | 3:40.20 | 52410 | 68929
7 | 15:19.05 | 1:50.50 | 68930 | 77229
8 | 17:09.55 | 2:01.35 | 77230 | 86339
9 | 19:11.15 | 3:14.57 | 86340 | 100946
10 | 22:25.72 | 1:50.65 | 100947 | 109261
11 | 24:16.62 | 1:36.28 | 109262 | 116489
12 | 25:53.15 | 2:22.72 | 116490 | 127211
13 | 28:16.12 | 4:56.65 | 127212 | 149476
14 | 33:13.02 | 3:56.05 | 149477 | 167181
15 | 37:09.07 | 2:00.58 | 167182 | 176239
16 | 39:09.65 | 3:07.27 | 176240 | 190291
17 | 42:17.17 | 3:36.03 | 190292 | 206494
18 | 45:53.20 | 1:33.20 | 206495 | 213489
19 | 47:26.40 | 4:08.52 | 213490 | 232141
20 | 51:35.17 | 1:31.18 | 232142 | 238984


Range status and errors

Selected range

Filename C:\Program Files\Exact Audio Copy\Flac\Bach - Magnificat BWV 243, Cantata BWV 80.wav

Peak level 100.0 %
Extraction speed 1.7 X
Range quality 100.0 %
Test CRC 1AB39A93
Copy CRC 1AB39A93
Copy OK

No errors occurred

End of status report

==== Log checksum 10E0E6FC6C9FA2229F23E942D12186A81C6F792C3010B344505D424E74706632 ====


Exact Audio Copy V1.3 from 2. September 2016

EAC extraction logfile from 14. February 2018, 23:37

Philippe Herreweghe, Collegium Vocale Gent / Bach - Cantatas BWV 8, 125, 138

Used drive : HL-DT-STDVDRAM GH24NS95 Adapter: 1 ID: 0

Read mode : Secure
Utilize accurate stream : Yes
Defeat audio cache : Yes
Make use of C2 pointers : No

Read offset correction : 6
Overread into Lead-In and Lead-Out : No
Fill up missing offset samples with silence : Yes
Delete leading and trailing silent blocks : No
Null samples used in CRC calculations : Yes
Used interface : Native Win32 interface for Win NT & 2000

Used output format : User Defined Encoder
Selected bitrate : 128 kBit/s
Quality : High
Add ID3 tag : No
Command line compressor : C:\Program Files\Exact Audio Copy\Flac\flac.exe
Additional command line options : -V -8 -T "Date=%year%" -T "Genre=%genre%" %source%


TOC of the extracted CD

Track | Start | Length | Start sector | End sector
––––––––––––––––––––––––––––-
1 | 0:00.32 | 6:40.58 | 32 | 30089
2 | 6:41.15 | 3:45.30 | 30090 | 46994
3 | 10:26.45 | 0:54.67 | 46995 | 51111
4 | 11:21.37 | 4:47.15 | 51112 | 72651
5 | 16:08.52 | 1:03.48 | 72652 | 77424
6 | 17:12.25 | 1:29.10 | 77425 | 84109
7 | 18:41.35 | 5:27.62 | 84110 | 108696
8 | 24:09.22 | 7:53.03 | 108697 | 144174
9 | 32:02.25 | 2:17.52 | 144175 | 154501
10 | 34:20.02 | 5:19.65 | 154502 | 178491
11 | 39:39.67 | 0:42.05 | 178492 | 181646
12 | 40:21.72 | 1:05.58 | 181647 | 186579
13 | 41:27.55 | 4:26.65 | 186580 | 206594
14 | 45:54.45 | 0:52.07 | 206595 | 210501
15 | 46:46.52 | 3:33.38 | 210502 | 226514
16 | 50:20.15 | 0:59.62 | 226515 | 231001
17 | 51:20.02 | 4:30.00 | 231002 | 251251
18 | 55:50.02 | 0:27.55 | 251252 | 253331
19 | 56:17.57 | 2:10.50 | 253332 | 263131


Range status and errors

Selected range

Filename C:\Program Files\Exact Audio Copy\Flac\Bach - Cantatas BWV 8, 125, 138.wav

Peak level 84.2 %
Extraction speed 1.8 X
Range quality 100.0 %
Test CRC E2405182
Copy CRC E2405182
Copy OK

No errors occurred

End of status report

==== Log checksum 531F004D67B6630A0B5C9825C6BA461018AD4394F9CA73BD1A93A072824CD45C ====

Philippe Herreweghe, Collegium Vocale Gent - Bach: Magnificat BWV 243 & 243a & Cantatas BWV 8, 63, 80, 125, 138 (2010)