Stichworte
Stichworte

Schoenberg Ensemble - Schoenberg Ensemble Edition (2006) {22CD+4DVD Set Etcetera KTC9000}

Gesendet von: ruskaval
Schoenberg Ensemble - Schoenberg Ensemble Edition (2006) {22CD+4DVD Set Etcetera KTC9000}

Schönberg Ensemble - Schönberg Ensemble Edition (2006) {22CD+4DVD Set Etcetera KTC9000}
XLD rip (secure mode) | FLAC (tracks)+CUE+LOG -> 5.82 Gb | MP3 @320 -> 3.21 Gb
3xDVD9+DVD5 -> 24.2 Gb | All Regions | NTSC 16:9 | LPCM, 2 ch / DTS, 5 ch | ~ 240 min | ISO Images
Subs: English, Francais, Deutsch, Espanol, Italiano, Nederlands
Full Artwork @ 600 dpi (jpg) -> 1.36 Gb | 5% repair rar
© 2006 Schönberg Ensemble / Et'cetera | KTC9000
Classical / Contemporary Classical / Experimental / Avant-Garde / 20th Century / 21st Century

The Amsterdam-based Schoenberg Ensemble ranks alongside the London Sinfonietta, the Ensemble Modern from Frankfurt and Ensemble Intercontemporain in Paris as one of Europe's most distinguished new-music groups. What began in 1974 when seven student instrumentalists got together with their teacher, Reinbert de Leeuw, to perform Schoenberg's Pierrot Lunaire has steadily diversified. At first, the group concentrated on the music of the Second Viennese School, but gradually its scope expanded: now the Schoenberg Ensemble has a core lineup of 14 musicians and a repertoire that stretches from the beginning of the 20th century to the present day.
Schoenberg Ensemble - Schoenberg Ensemble Edition (2006) {22CD+4DVD Set Etcetera KTC9000}

This mammoth retrospective set is a treasure trove of the ensemble's performances from the last 20 years, as well as an endlessly fascinating journey through the music of the 20th century. Many of the tracks derive from live recordings made by Dutch radio, others are studio sessions rescued from discs that have either been deleted after a brief life in the catalogue, or were never commercially released. The playing is fiercely concentrated and precise; De Leeuw conducts most of the performances in his typically no-nonsense way, but Oliver Knussen takes charge of the concert performance of Henze's opera Elegy for Young Lovers, as well as works by Percy Grainger and Ruth Crawford Seeger. For some works that require a larger band, the Ensemble joins forces with their fellow Amsterdamers of the Asko Ensemble.
Sign up for the Sleeve Notes email: music news, bold reviews and unexpected extras
Read more

The collection begins where the ensemble began, with works from the mainspring of modernism - Schoenberg's First Chamber Symphony and Pierrot Lunaire (a performance from 1988 with the marvellous German actress Barbara Sukowa as reciter), as well as a collection of Webern's songs with soprano Dorothy Dorow. There follow discs devoted to Mahler and Zemlinsky, Janacek, Stravinsky and Milhaud (works from the 1920s), as well as Knussen's quirky mixture of Crawford Seeger and Grainger. Then it's on to the second half of the century with Boulez, Stockhausen, Kurtag (including his extraordinary Beckett setting What is the Word?), Rihm, an all-Italian disc and a Ligeti collection that includes Melodien and the Violin Concerto. De Leeuw's own enthusiasms show up in discs of Ustvolskaya, Gubaidulina, Isang Yun, and Louis Andriessen's superbly austere setting of St Augustine, De Tijd. The final disc is devoted to contemporary Dutch composers including Michel Van der Aa and Elmer Schoenberger, who has also written the magnificent 628-page book, bilingual in Dutch and English, that accompanies the set.

Schoenberg Ensemble - Schoenberg Ensemble Edition (2006) {22CD+4DVD Set Etcetera KTC9000}


There are three DVDs too. One of them, Claude Vivier's Rêves de Marco Polo, exactly duplicates an Opus Arte release from last year, but another is devoted to a production by Herbert Wernicke of Mauricio Kagel's "lieder opera in 25 pictures" Aus Deutschland, in which the imagery of the German romantic poets is woven into a sequence of tableaux that seems simultaneously indebted to the 19th-century lieder tradition and something quite separate. It makes an interesting comparison with De Leeuw's own Im Wunderschönen Monat Mai, a reworking with a minimal staging of 21 Schubert and Schumann songs into a dramatic vehicle for the compelling Barbara Sukowa, who sings, yells and declaims the texts while the ensemble mulls over the original melodies and accompaniments. Not essential by any means, but as part of this remarkable compilation, it's riveting.
Schoenberg Ensemble - Schoenberg Ensemble Edition (2006) {22CD+4DVD Set Etcetera KTC9000}


25 gatefold albums including 22 audio CDs and 4 DVDs and 1 SACD.
Also enclosed is a 628 page booklet, slightly larger than the size of a CD's outer measurements that offers articles on each composer and composition by a huge variety of authors with full libretti and texts wherever required. The texts are in Dutch and English.
[all in one master box measuring 9½ inches in length]
Culled from live performances and some studio recordings.
Limited edition of 3000 copies.


Musicians
Schönberg Ensemble
Asko Ensemble
Reinbert de Leeuw
(conductor)
and others…

Works on This Records
Vol. 01
Arnold Schönberg - Kammersymphonie I • Lied der Waldtaube (Gurrelieder) • Drei Stücke für Kammerorchester • Pierrot lunaire • Der Wunsch des Liebhabers

Schoenberg Ensemble - Schoenberg Ensemble Edition (2006) {22CD+4DVD Set Etcetera KTC9000}

Schoenberg Ensemble - Schoenberg Ensemble Edition (2006) {22CD+4DVD Set Etcetera KTC9000}


Vol. 02
Anton Webern - Complete Vocal Chamber Works

Vol. 03
Gustav Mahler - Lieder eines fahrenden Gesellen • Kindertotenlieder
Alexander Zemlinsky - Maeterlinck Gesänge
Karol Szymanowski - Słopiewnie

Vol. 04
Leoš Janáček - The Diary of One Who Disappeared • Songs of Hradcány • Říkadla

Vol. 05
Igor Stravinsky - Mass • Cantata • Introitus • Abraham and Isaac

Vol. 06
Darius Milhaud - Les Malheurs d'Orphée • La Création du monde • Saudades do Brazil

Vol. 07
Ruth Crawford Seeger
Charles Seeger
Percy Grainger

Vol. 08
Olivier Messiaen - Trois petites liturgies de la Présence divine
Pierre Boulez - Rituel

Schoenberg Ensemble - Schoenberg Ensemble Edition (2006) {22CD+4DVD Set Etcetera KTC9000}


Vol. 09 (SACD)
Karlheinz Stockhausen - Gruppen

Schoenberg Ensemble - Schoenberg Ensemble Edition (2006) {22CD+4DVD Set Etcetera KTC9000}


Vol. 10
György Ligeti - Melodien • Violin Concerto • Aventures • Nouvelles aventures

Vol. 11 (2 CD)
Hans Werner Henze - Elegy for Young Lovers

Vol. 12 (DVD)
Mauricio Kagel - Aus Deutschland

Vol. 13
Isang Yun - Kammerkonzert I • Pièce concertante • Distanzen • Quartett

Vol. 14
György Kurtág - Messages of the Late Miss R.V. Trusova • Grabstein für Stephan • What is the Word

Vol. 15
Luigi Dallapiccola - Canti di Prigionia
Bruno Maderna - Tre liriche Greche
Luigi Nono - Canciones a Guiomar
Luciano Berio - Corale
Luca Francesconi - Inquieta limina

Vol. 16
Galina Ustvolskaya - Octet • Trio • Sonata for Violin and Piano

Vol. 17
Sofia Gubaidulina - Stimmen…verstummen… • Now Always Snow

Vol. 18
Nikolay Obukhov - Four Balmont Songs
Alexander Raskatov - The Last Freedom
Vladimir Tarnopolski - Foucault's Pendulum

Vol. 19 (2 DVD)
Claude Vivier - Rêves d'un Marco Polo

Vol. 20
Louis Andriessen - De Tijd

Vol. 21 (DVD)
Reinbert de Leeuw - Im wunderschönen Monat Mai - Dreimal sieben Lieder nach Schumann und Schubert

Schoenberg Ensemble - Schoenberg Ensemble Edition (2006) {22CD+4DVD Set Etcetera KTC9000}

Schoenberg Ensemble - Schoenberg Ensemble Edition (2006) {22CD+4DVD Set Etcetera KTC9000}


Vol. 22
Jan van Vlijmen - Inferno
Jan van de Putte - Es schweigt

Vol. 23
John Adams - Chamber Symphony • Scratchband
Duke Ellington - The Tattooed Bride
George Antheil - Ballet mécanique

Vol. 24
Wolfgang Rihm - Pol - Kolchis - Nucleus • Abschiedsstücke • Erscheinung • Die Stücke des Sängers • Chiffre I

Vol. 25
Elmer Schönberger - Dovemansoren
Alexander Skryabin/Klaas de Vries - Vers la flamme/Eclips
Michel van der Aa - Attach
Guus Janssen - Klotz

X Lossless Decoder version 20151214 (149.1)

XLD extraction logfile from 2016-04-13 20:41:32 +0200

Schönberg Ensemble / Schönberg Ensemble Edition Vol. 1 - Arnold Schönberg - Kammersymphonie I • Lied der Waldtaube (Gurrelieder) • Drei Stücke für Kammerorchester • Pierrot lunaire • Der Wunsch des Liebhabers [Etcetera]

Used drive : TSSTcorp CDDVDW SE-S084D (revision TS01)
Media type : Pressed CD

Ripper mode : XLD Secure Ripper
Disable audio cache : OK for the drive with a cache less than 1375KiB
Make use of C2 pointers : NO
Read offset correction : 6
Max retry count : 100
Gap status : Analyzed, Appended (except HTOA)

TOC of the extracted CD
Track | Start | Length | Start sector | End sector
––––––––––––––––––––––––––––-
1 | 00:00:00 | 20:19:35 | 0 | 91459
2 | 20:19:35 | 13:39:59 | 91460 | 152943
3 | 33:59:19 | 00:45:40 | 152944 | 156358
4 | 34:44:59 | 00:38:72 | 156359 | 159280
5 | 35:23:56 | 00:50:62 | 159281 | 163092
6 | 36:14:43 | 01:42:22 | 163093 | 170764
7 | 37:56:65 | 01:43:57 | 170765 | 178546
8 | 39:40:47 | 01:10:71 | 178547 | 183867
9 | 40:51:43 | 01:25:19 | 183868 | 190261
10 | 42:16:62 | 01:12:58 | 190262 | 195719
11 | 43:29:45 | 02:10:13 | 195720 | 205482
12 | 45:39:58 | 02:46:57 | 205483 | 217989
13 | 48:26:40 | 02:21:01 | 217990 | 228565
14 | 50:47:41 | 00:51:53 | 228566 | 232443
15 | 51:39:19 | 01:08:01 | 232444 | 237544
16 | 52:47:20 | 01:43:72 | 237545 | 245341
17 | 54:31:17 | 00:15:11 | 245342 | 246477
18 | 54:46:28 | 01:58:47 | 246478 | 255374
19 | 56:45:00 | 02:04:29 | 255375 | 264703
20 | 58:49:29 | 02:01:57 | 264704 | 273835
21 | 60:51:11 | 01:06:01 | 273836 | 278786
22 | 61:57:12 | 01:15:51 | 278787 | 284462
23 | 63:12:63 | 00:51:01 | 284463 | 288288
24 | 64:03:64 | 02:23:37 | 288289 | 299050
25 | 66:27:26 | 01:42:03 | 299051 | 306703
26 | 68:09:29 | 01:46:60 | 306704 | 314713
27 | 69:56:14 | 03:21:27 | 314714 | 329815

AccurateRip Summary (DiscID: 005ddece-0639b43c-9e112d1b)
Track 01 : OK (v1+v2, confidence 6/6)
Track 02 : OK (v1+v2, confidence 6/6)
Track 03 : OK (v1+v2, confidence 6/6)
Track 04 : OK (v1+v2, confidence 6/6)
Track 05 : OK (v1+v2, confidence 6/6)
Track 06 : OK (v1+v2, confidence 6/6)
Track 07 : OK (v1+v2, confidence 6/6)
Track 08 : OK (v1+v2, confidence 6/6)
Track 09 : OK (v1+v2, confidence 6/6)
Track 10 : OK (v1+v2, confidence 6/6)
Track 11 : OK (v1+v2, confidence 6/6)
Track 12 : OK (v1+v2, confidence 6/6)
Track 13 : OK (v1+v2, confidence 6/6)
Track 14 : OK (v1+v2, confidence 6/6)
Track 15 : OK (v1+v2, confidence 6/6)
Track 16 : OK (v1+v2, confidence 6/6)
Track 17 : OK (v1+v2, confidence 6/6)
Track 18 : OK (v1+v2, confidence 6/6)
Track 19 : OK (v1+v2, confidence 6/6)
Track 20 : OK (v1+v2, confidence 6/6)
Track 21 : OK (v1+v2, confidence 6/6)
Track 22 : OK (v1+v2, confidence 6/6)
Track 23 : OK (v1+v2, confidence 6/6)
Track 24 : OK (v1+v2, confidence 6/6)
Track 25 : OK (v1+v2, confidence 6/6)
Track 26 : OK (v1+v2, confidence 6/6)
Track 27 : OK (v1+v2, confidence 6/6)
->All tracks accurately ripped.

All Tracks
Album gain : 0.51 dB
Peak : 1.000000
Statistics
Read error : 0
Jitter error (maybe fixed) : 0
Retry sector count : 0
Damaged sector count : 0

Track 01
Filename : /Schönberg Ensemble Edition [Etcetera]/Vol. 1/01 Chamber Symphony No. 1 Op. 9.flac
Pre-gap length : 00:02:00

Track gain : -0.67 dB
Peak : 0.953491
CRC32 hash (test run) : 577B164B
CRC32 hash : 577B164B
CRC32 hash (skip zero) : 25964C7C
AccurateRip v1 signature : 171B4B0C
AccurateRip v2 signature : 7F2030D1
->Accurately ripped (v1+v2, confidence 3+3/6)
Statistics
Read error : 0
Jitter error (maybe fixed) : 0
Retry sector count : 0
Damaged sector count : 0

Track 02
Filename : /Schönberg Ensemble Edition [Etcetera]/Vol. 1/02 Lied der Waldtaube (Gurrelieder).flac

Track gain : -0.11 dB
Peak : 0.993561
CRC32 hash (test run) : F10D2508
CRC32 hash : F10D2508
CRC32 hash (skip zero) : C7180278
AccurateRip v1 signature : 82C0B0A2
AccurateRip v2 signature : E538AF76
->Accurately ripped (v1+v2, confidence 3+3/6)
Statistics
Read error : 0
Jitter error (maybe fixed) : 0
Retry sector count : 0
Damaged sector count : 0

Track 03
Filename : /Schönberg Ensemble Edition [Etcetera]/Vol. 1/03 Drei Stücke für Kammerorchester [1910]: I. Rasche Viertel.flac

Track gain : 3.77 dB
Peak : 0.476929
CRC32 hash (test run) : E572883F
CRC32 hash : E572883F
CRC32 hash (skip zero) : FFBFB245
AccurateRip v1 signature : E6AAFA7B
AccurateRip v2 signature : 8C0F2856
->Accurately ripped (v1+v2, confidence 3+3/6)
Statistics
Read error : 0
Jitter error (maybe fixed) : 0
Retry sector count : 0
Damaged sector count : 0

Track 04
Filename : /Schönberg Ensemble Edition [Etcetera]/Vol. 1/04 Drei Stücke für Kammerorchester [1910]: II. Mässige Viertel.flac

Track gain : 7.31 dB
Peak : 0.334900
CRC32 hash (test run) : 435D4C48
CRC32 hash : 435D4C48
CRC32 hash (skip zero) : EE9BD28E
AccurateRip v1 signature : 3CD4E1C7
AccurateRip v2 signature : EE0F83EC
->Accurately ripped (v1+v2, confidence 3+3/6)
Statistics
Read error : 0
Jitter error (maybe fixed) : 0
Retry sector count : 0
Damaged sector count : 0

Track 05
Filename : /Schönberg Ensemble Edition [Etcetera]/Vol. 1/05 Drei Stücke für Kammerorchester [1910]: III. Gehende Viertel.flac

Track gain : 19.17 dB
Peak : 0.177856
CRC32 hash (test run) : BB221761
CRC32 hash : BB221761
CRC32 hash (skip zero) : DE679899
AccurateRip v1 signature : 2E27F2ED
AccurateRip v2 signature : 82A0E6CC
->Accurately ripped (v1+v2, confidence 3+3/6)
Statistics
Read error : 0
Jitter error (maybe fixed) : 0
Retry sector count : 0
Damaged sector count : 0

Track 06
Filename : /Schönberg Ensemble Edition [Etcetera]/Vol. 1/06 Pierrot Lunaire Op. 21 - Part I: Mondestrunken.flac

Track gain : 1.49 dB
Peak : 0.877655
CRC32 hash (test run) : 4F5D3514
CRC32 hash : 4F5D3514
CRC32 hash (skip zero) : 5A3DA380
AccurateRip v1 signature : 4C907F5D
AccurateRip v2 signature : 1A755695
->Accurately ripped (v1+v2, confidence 3+3/6)
Statistics
Read error : 0
Jitter error (maybe fixed) : 0
Retry sector count : 0
Damaged sector count : 0

Track 07
Filename : /Schönberg Ensemble Edition [Etcetera]/Vol. 1/07 Pierrot Lunaire Op. 21 - Part I: Colombine.flac

Track gain : 14.76 dB
Peak : 0.160217
CRC32 hash (test run) : C3FB8816
CRC32 hash : C3FB8816
CRC32 hash (skip zero) : A2E672AD
AccurateRip v1 signature : FCE13757
AccurateRip v2 signature : 52777FBF
->Accurately ripped (v1+v2, confidence 3+3/6)
Statistics
Read error : 0
Jitter error (maybe fixed) : 0
Retry sector count : 0
Damaged sector count : 0

Track 08
Filename : /Schönberg Ensemble Edition [Etcetera]/Vol. 1/08 Pierrot Lunaire Op. 21 - Part I: Der Dandy.flac

Track gain : 4.61 dB
Peak : 0.915649
CRC32 hash (test run) : 534BD4E6
CRC32 hash : 534BD4E6
CRC32 hash (skip zero) : 6C6BE3EA
AccurateRip v1 signature : 22892EA8
AccurateRip v2 signature : F623DCD2
->Accurately ripped (v1+v2, confidence 3+3/6)
Statistics
Read error : 0
Jitter error (maybe fixed) : 0
Retry sector count : 0
Damaged sector count : 0

Track 09
Filename : /Schönberg Ensemble Edition [Etcetera]/Vol. 1/09 Pierrot Lunaire Op. 21 - Part I: Eine blasse Wäscherin.flac

Track gain : 18.49 dB
Peak : 0.071014
CRC32 hash (test run) : 539A40DF
CRC32 hash : 539A40DF
CRC32 hash (skip zero) : D58F6164
AccurateRip v1 signature : 3755B17D
AccurateRip v2 signature : 5960C237
->Accurately ripped (v1+v2, confidence 3+3/6)
Statistics
Read error : 0
Jitter error (maybe fixed) : 0
Retry sector count : 0
Damaged sector count : 0

Track 10
Filename : /Schönberg Ensemble Edition [Etcetera]/Vol. 1/10 Pierrot Lunaire Op. 21 - Part I: Valse de Chopin.flac

Track gain : 0.96 dB
Peak : 1.000000
CRC32 hash (test run) : 3B1D5F57
CRC32 hash : 3B1D5F57
CRC32 hash (skip zero) : 37DF2635
AccurateRip v1 signature : C75238D0
AccurateRip v2 signature : 2144ADE9
->Accurately ripped (v1+v2, confidence 3+3/6)
Statistics
Read error : 0
Jitter error (maybe fixed) : 0
Retry sector count : 0
Damaged sector count : 0

Track 11
Filename : /Schönberg Ensemble Edition [Etcetera]/Vol. 1/11 Pierrot Lunaire Op. 21 - Part I: Madonna.flac

Track gain : -0.19 dB
Peak : 0.807800
CRC32 hash (test run) : FCBC1CA9
CRC32 hash : FCBC1CA9
CRC32 hash (skip zero) : AE7F9881
AccurateRip v1 signature : E78BFE46
AccurateRip v2 signature : 70706D90
->Accurately ripped (v1+v2, confidence 3+3/6)
Statistics
Read error : 0
Jitter error (maybe fixed) : 0
Retry sector count : 0
Damaged sector count : 0

Track 12
Filename : /Schönberg Ensemble Edition [Etcetera]/Vol. 1/12 Pierrot Lunaire Op. 21 - Part I: Der kranke Mond.flac

Track gain : 12.69 dB
Peak : 0.254089
CRC32 hash (test run) : 9DADEF45
CRC32 hash : 9DADEF45
CRC32 hash (skip zero) : 13CCF7EB
AccurateRip v1 signature : 3842409F
AccurateRip v2 signature : 4D08B6D0
->Accurately ripped (v1+v2, confidence 3+3/6)
Statistics
Read error : 0
Jitter error (maybe fixed) : 0
Retry sector count : 0
Damaged sector count : 0

Track 13
Filename : /Schönberg Ensemble Edition [Etcetera]/Vol. 1/13 Pierrot Lunaire Op. 21 - Part II: Nacht.flac

Track gain : 4.39 dB
Peak : 0.878265
CRC32 hash (test run) : FAABA42D
CRC32 hash : FAABA42D
CRC32 hash (skip zero) : EFB29AEA
AccurateRip v1 signature : E65CE4C5
AccurateRip v2 signature : CFD3F0A8
->Accurately ripped (v1+v2, confidence 3+3/6)
Statistics
Read error : 0
Jitter error (maybe fixed) : 0
Retry sector count : 0
Damaged sector count : 0

Track 14
Filename : /Schönberg Ensemble Edition [Etcetera]/Vol. 1/14 Pierrot Lunaire Op. 21 - Part II: Gebet an Pierrot.flac

Track gain : 1.36 dB
Peak : 1.000000
CRC32 hash (test run) : 21513C40
CRC32 hash : 21513C40
CRC32 hash (skip zero) : 7C054DDA
AccurateRip v1 signature : C6873DA3
AccurateRip v2 signature : 2764BFE7
->Accurately ripped (v1+v2, confidence 3+3/6)
Statistics
Read error : 0
Jitter error (maybe fixed) : 0
Retry sector count : 0
Damaged sector count : 0

Track 15
Filename : /Schönberg Ensemble Edition [Etcetera]/Vol. 1/15 Pierrot Lunaire Op. 21 - Part II: Raub.flac

Track gain : 6.47 dB
Peak : 0.542755
CRC32 hash (test run) : 59CBE8F6
CRC32 hash : 59CBE8F6
CRC32 hash (skip zero) : CB82D421
AccurateRip v1 signature : E8040C32
AccurateRip v2 signature : 8EAFB8EA
->Accurately ripped (v1+v2, confidence 3+3/6)
Statistics
Read error : 0
Jitter error (maybe fixed) : 0
Retry sector count : 0
Damaged sector count : 0

Track 16
Filename : /Schönberg Ensemble Edition [Etcetera]/Vol. 1/16 Pierrot Lunaire Op. 21 - Part II: Rote Messe.flac

Track gain : -1.33 dB
Peak : 1.000000
CRC32 hash (test run) : 5BC0226E
CRC32 hash : 5BC0226E
CRC32 hash (skip zero) : 97EA668E
AccurateRip v1 signature : 7AA0191C
AccurateRip v2 signature : C7B1117F
->Accurately ripped (v1+v2, confidence 3+3/6)
Statistics
Read error : 0
Jitter error (maybe fixed) : 0
Retry sector count : 0
Damaged sector count : 0

Track 17
Filename : /Schönberg Ensemble Edition [Etcetera]/Vol. 1/17 Pierrot Lunaire Op. 21 - Part II: Galgenlied.flac

Track gain : 3.25 dB
Peak : 0.637482
CRC32 hash (test run) : E58D2064
CRC32 hash : E58D2064
CRC32 hash (skip zero) : 8731E311
AccurateRip v1 signature : AD877F02
AccurateRip v2 signature : BFE98DDB
->Accurately ripped (v1+v2, confidence 3+3/6)
Statistics
Read error : 0
Jitter error (maybe fixed) : 0
Retry sector count : 0
Damaged sector count : 0

Track 18
Filename : /Schönberg Ensemble Edition [Etcetera]/Vol. 1/18 Pierrot Lunaire Op. 21 - Part II: Enthauptung.flac

Track gain : -0.23 dB
Peak : 0.999969
CRC32 hash (test run) : 957325CD
CRC32 hash : 957325CD
CRC32 hash (skip zero) : 14F6FB73
AccurateRip v1 signature : C7834E9A
AccurateRip v2 signature : 835CDD4E
->Accurately ripped (v1+v2, confidence 3+3/6)
Statistics
Read error : 0
Jitter error (maybe fixed) : 0
Retry sector count : 0
Damaged sector count : 0

Track 19
Filename : /Schönberg Ensemble Edition [Etcetera]/Vol. 1/19 Pierrot Lunaire Op. 21 - Part II: Die Kreuze.flac

Track gain : -3.14 dB
Peak : 0.979004
CRC32 hash (test run) : CF052916
CRC32 hash : CF052916
CRC32 hash (skip zero) : F33C53B4
AccurateRip v1 signature : 3A1786DD
AccurateRip v2 signature : E7F4F906
->Accurately ripped (v1+v2, confidence 3+3/6)
Statistics
Read error : 0
Jitter error (maybe fixed) : 0
Retry sector count : 0
Damaged sector count : 0

Track 20
Filename : /Schönberg Ensemble Edition [Etcetera]/Vol. 1/20 Pierrot Lunaire Op. 21 - Part III: Heimweh.flac

Track gain : -0.39 dB
Peak : 0.842499
CRC32 hash (test run) : D62CC384
CRC32 hash : D62CC384
CRC32 hash (skip zero) : 09821B0B
AccurateRip v1 signature : 0E3BACD6
AccurateRip v2 signature : 00513A9F
->Accurately ripped (v1+v2, confidence 3+3/6)
Statistics
Read error : 0
Jitter error (maybe fixed) : 0
Retry sector count : 0
Damaged sector count : 0

Track 21
Filename : /Schönberg Ensemble Edition [Etcetera]/Vol. 1/21 Pierrot Lunaire Op. 21 - Part III: Gemeinheit!.flac

Track gain : 0.98 dB
Peak : 0.786713
CRC32 hash (test run) : 66642DEB
CRC32 hash : 66642DEB
CRC32 hash (skip zero) : FA03CF13
AccurateRip v1 signature : 8E12A410
AccurateRip v2 signature : 3B5153FC
->Accurately ripped (v1+v2, confidence 3+3/6)
Statistics
Read error : 0
Jitter error (maybe fixed) : 0
Retry sector count : 0
Damaged sector count : 0

Track 22
Filename : /Schönberg Ensemble Edition [Etcetera]/Vol. 1/22 Pierrot Lunaire Op. 21 - Part III: Parodie.flac

Track gain : 3.61 dB
Peak : 0.684509
CRC32 hash (test run) : CB8F7A6D
CRC32 hash : CB8F7A6D
CRC32 hash (skip zero) : 0A034FD9
AccurateRip v1 signature : C0997345
AccurateRip v2 signature : A288918E
->Accurately ripped (v1+v2, confidence 3+3/6)
Statistics
Read error : 0
Jitter error (maybe fixed) : 0
Retry sector count : 0
Damaged sector count : 0

Track 23
Filename : /Schönberg Ensemble Edition [Etcetera]/Vol. 1/23 Pierrot Lunaire Op. 21 - Part III: Der Mondfleck.flac

Track gain : 1.99 dB
Peak : 0.633728
CRC32 hash (test run) : 82C68C61
CRC32 hash : 82C68C61
CRC32 hash (skip zero) : 7E9BF4EA
AccurateRip v1 signature : DE3CDB4D
AccurateRip v2 signature : 60AE2DD7
->Accurately ripped (v1+v2, confidence 3+3/6)
Statistics
Read error : 0
Jitter error (maybe fixed) : 0
Retry sector count : 0
Damaged sector count : 0

Track 24
Filename : /Schönberg Ensemble Edition [Etcetera]/Vol. 1/24 Pierrot Lunaire Op. 21 - Part III: Serenade.flac

Track gain : 5.12 dB
Peak : 0.978912
CRC32 hash (test run) : 5044C39E
CRC32 hash : 5044C39E
CRC32 hash (skip zero) : 9AE9B26E
AccurateRip v1 signature : FD1F1849
AccurateRip v2 signature : FEBB6DF7
->Accurately ripped (v1+v2, confidence 3+3/6)
Statistics
Read error : 0
Jitter error (maybe fixed) : 0
Retry sector count : 0
Damaged sector count : 0

Track 25
Filename : /Schönberg Ensemble Edition [Etcetera]/Vol. 1/25 Pierrot Lunaire Op. 21 - Part III: Heimfahrt (Barcarole).flac

Track gain : 12.59 dB
Peak : 0.217163
CRC32 hash (test run) : C50CD0FF
CRC32 hash : C50CD0FF
CRC32 hash (skip zero) : 29C5CF22
AccurateRip v1 signature : 2B71EB05
AccurateRip v2 signature : 88F03EE6
->Accurately ripped (v1+v2, confidence 3+3/6)
Statistics
Read error : 0
Jitter error (maybe fixed) : 0
Retry sector count : 0
Damaged sector count : 0

Track 26
Filename : /Schönberg Ensemble Edition [Etcetera]/Vol. 1/26 Pierrot Lunaire Op. 21 - Part III: O alter Duft.flac

Track gain : 15.26 dB
Peak : 0.176270
CRC32 hash (test run) : E35903D0
CRC32 hash : E35903D0
CRC32 hash (skip zero) : 4FDC913F
AccurateRip v1 signature : E5B94F9E
AccurateRip v2 signature : EE680F9E
->Accurately ripped (v1+v2, confidence 3+3/6)
Statistics
Read error : 0
Jitter error (maybe fixed) : 0
Retry sector count : 0
Damaged sector count : 0

Track 27
Filename : /Schönberg Ensemble Edition [Etcetera]/Vol. 1/27 Der Wunsch des Liebhabers Op. 27 No. 4.flac

Track gain : 6.54 dB
Peak : 0.674957
CRC32 hash (test run) : FD560F7E
CRC32 hash : FD560F7E
CRC32 hash (skip zero) : C81E8481
AccurateRip v1 signature : 213B7A65
AccurateRip v2 signature : 7B33E98D
->Accurately ripped (v1+v2, confidence 3+3/6)
Statistics
Read error : 0
Jitter error (maybe fixed) : 0
Retry sector count : 0
Damaged sector count : 0

No errors occurred

End of status report

––-BEGIN XLD SIGNATURE––-
lf3kko1ldulD3d1fkLilQ6ZRyM8ty0W_yb0UcSr5fKU6LjIwDpaOEEZFmC5zxxkIgOFt1_X.E7deHlzfOYr1hbHqC3grmyHxoO.nd1S
––-END XLD SIGNATURE––-
X Lossless Decoder version 20151214 (149.1)

XLD extraction logfile from 2016-04-13 21:08:36 +0200

Schönberg Ensemble / Schönberg Ensemble Edition Vol. 2 - Anton Webern - Complete Vocal Chamber Works [Etcetera]

Used drive : TSSTcorp CDDVDW SE-S084D (revision TS01)
Media type : Pressed CD

Ripper mode : XLD Secure Ripper
Disable audio cache : OK for the drive with a cache less than 1375KiB
Make use of C2 pointers : NO
Read offset correction : 6
Max retry count : 100
Gap status : Analyzed, Appended (except HTOA)

TOC of the extracted CD
Track | Start | Length | Start sector | End sector
––––––––––––––––––––––––––––-
1 | 00:00:00 | 02:48:09 | 0 | 12608
2 | 02:48:09 | 01:05:29 | 12609 | 17512
3 | 03:53:38 | 01:03:11 | 17513 | 22248
4 | 04:56:49 | 00:40:10 | 22249 | 25258
5 | 05:36:59 | 00:51:39 | 25259 | 29122
6 | 06:28:23 | 00:37:49 | 29123 | 31946
7 | 07:05:72 | 01:02:19 | 31947 | 36615
8 | 08:08:16 | 01:06:06 | 36616 | 41571
9 | 09:14:22 | 01:46:18 | 41572 | 49539
10 | 11:00:40 | 02:29:74 | 49540 | 60788
11 | 13:30:39 | 01:15:59 | 60789 | 66472
12 | 14:46:23 | 01:03:11 | 66473 | 71208
13 | 15:49:34 | 02:11:40 | 71209 | 81073
14 | 18:00:74 | 01:32:01 | 81074 | 87974
15 | 19:33:00 | 01:15:57 | 87975 | 93656
16 | 20:48:57 | 01:22:09 | 93657 | 99815
17 | 22:10:66 | 01:35:53 | 99816 | 106993
18 | 23:46:44 | 00:38:70 | 106994 | 109913
19 | 24:25:39 | 01:16:61 | 109914 | 115674
20 | 25:42:25 | 00:58:12 | 115675 | 120036
21 | 26:40:37 | 00:54:72 | 120037 | 124158
22 | 27:35:34 | 00:59:41 | 124159 | 128624
23 | 28:35:00 | 01:08:56 | 128625 | 133780
24 | 29:43:56 | 01:37:72 | 133781 | 141127
25 | 31:21:53 | 00:27:17 | 141128 | 143169
26 | 31:48:70 | 01:11:07 | 143170 | 148501
27 | 33:00:02 | 00:48:06 | 148502 | 152107
28 | 33:48:08 | 00:26:25 | 152108 | 154082
29 | 34:14:33 | 00:27:15 | 154083 | 156122
30 | 34:41:48 | 00:44:67 | 156123 | 159489
31 | 35:26:40 | 01:00:26 | 159490 | 164015
32 | 36:26:66 | 00:37:40 | 164016 | 166830
33 | 37:04:31 | 00:56:29 | 166831 | 171059
34 | 38:00:60 | 01:00:24 | 171060 | 175583
35 | 39:01:09 | 01:23:33 | 175584 | 181841
36 | 40:24:42 | 01:00:00 | 181842 | 186341
37 | 41:24:42 | 00:58:65 | 186342 | 190756
38 | 42:23:32 | 02:44:48 | 190757 | 203104

AccurateRip Summary (DiscID: 003f7ceb-0678e788-110a9426)
Track 01 : OK (v1+v2, confidence 6/6)
Track 02 : OK (v1+v2, confidence 6/6)
Track 03 : OK (v1+v2, confidence 6/6)
Track 04 : OK (v1+v2, confidence 6/6)
Track 05 : OK (v1+v2, confidence 6/6)
Track 06 : OK (v1+v2, confidence 6/6)
Track 07 : OK (v1+v2, confidence 6/6)
Track 08 : OK (v1+v2, confidence 6/6)
Track 09 : OK (v1+v2, confidence 6/6)
Track 10 : OK (v1+v2, confidence 6/6)
Track 11 : OK (v1+v2, confidence 6/6)
Track 12 : OK (v1+v2, confidence 6/6)
Track 13 : OK (v1+v2, confidence 6/6)
Track 14 : OK (v1+v2, confidence 6/6)
Track 15 : OK (v1+v2, confidence 6/6)
Track 16 : OK (v1+v2, confidence 6/6)
Track 17 : OK (v1+v2, confidence 6/6)
Track 18 : OK (v1+v2, confidence 6/6)
Track 19 : OK (v1+v2, confidence 6/6)
Track 20 : OK (v1+v2, confidence 6/6)
Track 21 : OK (v1+v2, confidence 6/6)
Track 22 : OK (v1+v2, confidence 6/6)
Track 23 : OK (v1+v2, confidence 6/6)
Track 24 : OK (v1+v2, confidence 6/6)
Track 25 : OK (v1+v2, confidence 6/6)
Track 26 : OK (v1+v2, confidence 6/6)
Track 27 : OK (v1+v2, confidence 6/6)
Track 28 : OK (v1+v2, confidence 6/6)
Track 29 : OK (v1+v2, confidence 6/6)
Track 30 : OK (v1+v2, confidence 6/6)
Track 31 : OK (v1+v2, confidence 6/6)
Track 32 : OK (v1+v2, confidence 6/6)
Track 33 : OK (v1+v2, confidence 6/6)
Track 34 : OK (v1+v2, confidence 6/6)
Track 35 : OK (v1+v2, confidence 6/6)
Track 36 : OK (v1+v2, confidence 6/6)
Track 37 : OK (v1+v2, confidence 6/6)
Track 38 : OK (v1+v2, confidence 6/6)
->All tracks accurately ripped.

All Tracks
Album gain : 2.61 dB
Peak : 0.977295
Statistics
Read error : 0
Jitter error (maybe fixed) : 0
Retry sector count : 0
Damaged sector count : 0

Track 01
Filename : /Schönberg Ensemble Edition [Etcetera]/Vol. 2/01 Entflieht auf leichten Kähnen Op. 2 [original 1908 version].flac
Pre-gap length : 00:02:00

Track gain : 3.61 dB
Peak : 0.668427
CRC32 hash (test run) : 37298EBC
CRC32 hash : 37298EBC
CRC32 hash (skip zero) : 8644CD13
AccurateRip v1 signature : 656C4B49
AccurateRip v2 signature : 289197D0
->Accurately ripped (v1+v2, confidence 3+3/6)
Statistics
Read error : 0
Jitter error (maybe fixed) : 0
Retry sector count : 0
Damaged sector count : 0

Track 02
Filename : /Schönberg Ensemble Edition [Etcetera]/Vol. 2/02 2 Lieder Op. 8: I. Du, der ichs nicht sage.flac

Track gain : 5.46 dB
Peak : 0.974030
CRC32 hash (test run) : E828C396
CRC32 hash : E828C396
CRC32 hash (skip zero) : AF40B9BD
AccurateRip v1 signature : 7F329D4A
AccurateRip v2 signature : 99E3578B
->Accurately ripped (v1+v2, confidence 3+3/6)
Statistics
Read error : 0
Jitter error (maybe fixed) : 0
Retry sector count : 0
Damaged sector count : 0

Track 03
Filename : /Schönberg Ensemble Edition [Etcetera]/Vol. 2/03 2 Lieder Op. 8: II. Du machst mich allein.flac

Track gain : 3.45 dB
Peak : 0.967407
CRC32 hash (test run) : 5177484D
CRC32 hash : 5177484D
CRC32 hash (skip zero) : E43E37E4
AccurateRip v1 signature : F7C6BA97
AccurateRip v2 signature : F268B4A9
->Accurately ripped (v1+v2, confidence 3+3/6)
Statistics
Read error : 0
Jitter error (maybe fixed) : 0
Retry sector count : 0
Damaged sector count : 0

Track 04
Filename : /Schönberg Ensemble Edition [Etcetera]/Vol. 2/04 3 Stücke für Streichquartett [1913]: I. Mäßig [= Op. 9 No. 1].flac

Track gain : 10.25 dB
Peak : 0.496735
CRC32 hash (test run) : 5112478F
CRC32 hash : 5112478F
CRC32 hash (skip zero) : 820C5472
AccurateRip v1 signature : 1FDA79FB
AccurateRip v2 signature : F71899B1
->Accurately ripped (v1+v2, confidence 3+3/6)
Statistics
Read error : 0
Jitter error (maybe fixed) : 0
Retry sector count : 0
Damaged sector count : 0

Track 05
Filename : /Schönberg Ensemble Edition [Etcetera]/Vol. 2/05 3 Stücke für Streichquartett [1913]: II. Schmerz, immer blick nach oben.flac

Track gain : 12.55 dB
Peak : 0.518188
CRC32 hash (test run) : 91C454B3
CRC32 hash : 91C454B3
CRC32 hash (skip zero) : 53547BB9
AccurateRip v1 signature : 742EF19F
AccurateRip v2 signature : 535A9283
->Accurately ripped (v1+v2, confidence 3+3/6)
Statistics
Read error : 0
Jitter error (maybe fixed) : 0
Retry sector count : 0
Damaged sector count : 0

Track 06
Filename : /Schönberg Ensemble Edition [Etcetera]/Vol. 2/06 3 Stücke für Streichquartett [1913]: III. Fließend [= Op. 9 No. 6].flac

Track gain : 15.14 dB
Peak : 0.154938
CRC32 hash (test run) : 8BEBB65F
CRC32 hash : 8BEBB65F
CRC32 hash (skip zero) : 2F03A71A
AccurateRip v1 signature : 36D8A8DF
AccurateRip v2 signature : E30AD1A1
->Accurately ripped (v1+v2, confidence 3+3/6)
Statistics
Read error : 0
Jitter error (maybe fixed) : 0
Retry sector count : 0
Damaged sector count : 0

Track 07
Filename : /Schönberg Ensemble Edition [Etcetera]/Vol. 2/07 3 Lieder für Gesang und Orchester [1913-14]: I. Leise Düfte.flac

Track gain : 5.33 dB
Peak : 0.553406
CRC32 hash (test run) : F40DC0EF
CRC32 hash : F40DC0EF
CRC32 hash (skip zero) : 9450A72C
AccurateRip v1 signature : 8B94CC64
AccurateRip v2 signature : C8176980
->Accurately ripped (v1+v2, confidence 3+3/6)
Statistics
Read error : 0
Jitter error (maybe fixed) : 0
Retry sector count : 0
Damaged sector count : 0

Track 08
Filename : /Schönberg Ensemble Edition [Etcetera]/Vol. 2/08 3 Lieder für Gesang und Orchester [1913-14]: II. Kunfttag III.flac

Track gain : -0.06 dB
Peak : 0.933502
CRC32 hash (test run) : EFFC85C8
CRC32 hash : EFFC85C8
CRC32 hash (skip zero) : 8E55CCC2
AccurateRip v1 signature : 8CBF0066
AccurateRip v2 signature : 736540F8
->Accurately ripped (v1+v2, confidence 3+3/6)
Statistics
Read error : 0
Jitter error (maybe fixed) : 0
Retry sector count : 0
Damaged sector count : 0

Track 09
Filename : /Schönberg Ensemble Edition [Etcetera]/Vol. 2/09 3 Lieder für Gesang und Orchester [1913-14]: III. O sanftes Glühn.flac

Track gain : 13.82 dB
Peak : 0.691498
CRC32 hash (test run) : A860F4C3
CRC32 hash : A860F4C3
CRC32 hash (skip zero) : 00B6EFB2
AccurateRip v1 signature : 2B846048
AccurateRip v2 signature : 3433CB11
->Accurately ripped (v1+v2, confidence 3+3/6)
Statistics
Read error : 0
Jitter error (maybe fixed) : 0
Retry sector count : 0
Damaged sector count : 0

Track 10
Filename : /Schönberg Ensemble Edition [Etcetera]/Vol. 2/10 4 Lieder Op. 13: I. Wiese im Park.flac

Track gain : 2.45 dB
Peak : 0.904327
CRC32 hash (test run) : 7DB83E54
CRC32 hash : 7DB83E54
CRC32 hash (skip zero) : A05CBB3E
AccurateRip v1 signature : 229ABFE1
AccurateRip v2 signature : 993FB3D8
->Accurately ripped (v1+v2, confidence 3+3/6)
Statistics
Read error : 0
Jitter error (maybe fixed) : 0
Retry sector count : 0
Damaged sector count : 0

Track 11
Filename : /Schönberg Ensemble Edition [Etcetera]/Vol. 2/11 4 Lieder Op. 13: II. Die Einsame.flac

Track gain : 3.75 dB
Peak : 0.813324
CRC32 hash (test run) : 68383ACD
CRC32 hash : 68383ACD
CRC32 hash (skip zero) : F478C291
AccurateRip v1 signature : C9145B4E
AccurateRip v2 signature : 5500110A
->Accurately ripped (v1+v2, confidence 3+3/6)
Statistics
Read error : 0
Jitter error (maybe fixed) : 0
Retry sector count : 0
Damaged sector count : 0

Track 12
Filename : /Schönberg Ensemble Edition [Etcetera]/Vol. 2/12 4 Lieder Op. 13: III. In der Fremde.flac

Track gain : 5.18 dB
Peak : 0.489502
CRC32 hash (test run) : E24FB40D
CRC32 hash : E24FB40D
CRC32 hash (skip zero) : 61B6F2B5
AccurateRip v1 signature : 5CACC354
AccurateRip v2 signature : 9F839691
->Accurately ripped (v1+v2, confidence 3+3/6)
Statistics
Read error : 0
Jitter error (maybe fixed) : 0
Retry sector count : 0
Damaged sector count : 0

Track 13
Filename : /Schönberg Ensemble Edition [Etcetera]/Vol. 2/13 4 Lieder Op. 13: IV. Ein Winterabend.flac

Track gain : 8.06 dB
Peak : 0.493988
CRC32 hash (test run) : C16B26DB
CRC32 hash : C16B26DB
CRC32 hash (skip zero) : EBE3365F
AccurateRip v1 signature : 3E440EF9
AccurateRip v2 signature : 93150593
->Accurately ripped (v1+v2, confidence 3+3/6)
Statistics
Read error : 0
Jitter error (maybe fixed) : 0
Retry sector count : 0
Damaged sector count : 0

Track 14
Filename : /Schönberg Ensemble Edition [Etcetera]/Vol. 2/14 6 Lieder Op. 14: I. Die Sonne:.flac

Track gain : 5.14 dB
Peak : 0.931122
CRC32 hash (test run) : 4FD4BABC
CRC32 hash : 4FD4BABC
CRC32 hash (skip zero) : 8CCAEF1B
AccurateRip v1 signature : C38C0440
AccurateRip v2 signature : 7C4765FF
->Accurately ripped (v1+v2, confidence 3+3/6)
Statistics
Read error : 0
Jitter error (maybe fixed) : 0
Retry sector count : 0
Damaged sector count : 0

Track 15
Filename : /Schönberg Ensemble Edition [Etcetera]/Vol. 2/15 6 Lieder Op. 14: II. Abendland I.flac

Track gain : 2.87 dB
Peak : 0.944519
CRC32 hash (test run) : 98EC83D2
CRC32 hash : 98EC83D2
CRC32 hash (skip zero) : 58D51694
AccurateRip v1 signature : 2D6000FD
AccurateRip v2 signature : 7F513FD6
->Accurately ripped (v1+v2, confidence 3+3/6)
Statistics
Read error : 0
Jitter error (maybe fixed) : 0
Retry sector count : 0
Damaged sector count : 0

Track 16
Filename : /Schönberg Ensemble Edition [Etcetera]/Vol. 2/16 6 Lieder Op. 14: III. Abendland II.flac

Track gain : 5.86 dB
Peak : 0.937653
CRC32 hash (test run) : 1A197E6B
CRC32 hash : 1A197E6B
CRC32 hash (skip zero) : 68E62280
AccurateRip v1 signature : 3520EBC2
AccurateRip v2 signature : 51BBAE2B
->Accurately ripped (v1+v2, confidence 3+3/6)
Statistics
Read error : 0
Jitter error (maybe fixed) : 0
Retry sector count : 0
Damaged sector count : 0

Track 17
Filename : /Schönberg Ensemble Edition [Etcetera]/Vol. 2/17 6 Lieder Op. 14: IV. Abendland III.flac

Track gain : 0.82 dB
Peak : 0.977295
CRC32 hash (test run) : B8A3E3B1
CRC32 hash : B8A3E3B1
CRC32 hash (skip zero) : DA9D81CA
AccurateRip v1 signature : 98D4C426
AccurateRip v2 signature : 1AC433DE
->Accurately ripped (v1+v2, confidence 3+3/6)
Statistics
Read error : 0
Jitter error (maybe fixed) : 0
Retry sector count : 0
Damaged sector count : 0

Track 18
Filename : /Schönberg Ensemble Edition [Etcetera]/Vol. 2/18 6 Lieder Op. 14: V. Nachts.flac

Track gain : -3.12 dB
Peak : 0.875336
CRC32 hash (test run) : 91980C0C
CRC32 hash : 91980C0C
CRC32 hash (skip zero) : 168CD28A
AccurateRip v1 signature : 2ECA5864
AccurateRip v2 signature : 03700AD8
->Accurately ripped (v1+v2, confidence 3+3/6)
Statistics
Read error : 0
Jitter error (maybe fixed) : 0
Retry sector count : 0
Damaged sector count : 0

Track 19
Filename : /Schönberg Ensemble Edition [Etcetera]/Vol. 2/19 6 Lieder Op. 14: VI. Gesang einer gefangenen Amsel.flac

Track gain : 2.31 dB
Peak : 0.679901
CRC32 hash (test run) : 1C1BCB80
CRC32 hash : 1C1BCB80
CRC32 hash (skip zero) : 1219FD6A
AccurateRip v1 signature : CC4513A0
AccurateRip v2 signature : F3B05CE7
->Accurately ripped (v1+v2, confidence 3+3/6)
Statistics
Read error : 0
Jitter error (maybe fixed) : 0
Retry sector count : 0
Damaged sector count : 0

Track 20
Filename : /Schönberg Ensemble Edition [Etcetera]/Vol. 2/20 5 geistliche Lieder Op. 15: I. Das Kreuz, das mußt' er tragen.flac

Track gain : 1.76 dB
Peak : 0.811615
CRC32 hash (test run) : C23E3C47
CRC32 hash : C23E3C47
CRC32 hash (skip zero) : 9D2BD42C
AccurateRip v1 signature : 4B59CB5A
AccurateRip v2 signature : 18B96B15
->Accurately ripped (v1+v2, confidence 3+3/6)
Statistics
Read error : 0
Jitter error (maybe fixed) : 0
Retry sector count : 0
Damaged sector count : 0

Track 21
Filename : /Schönberg Ensemble Edition [Etcetera]/Vol. 2/21 5 geistliche Lieder Op. 15: II. Morgenlied.flac

Track gain : 0.12 dB
Peak : 0.955200
CRC32 hash (test run) : D66E202C
CRC32 hash : D66E202C
CRC32 hash (skip zero) : 46DEA960
AccurateRip v1 signature : 77C4E8BD
AccurateRip v2 signature : A2209890
->Accurately ripped (v1+v2, confidence 3+3/6)
Statistics
Read error : 0
Jitter error (maybe fixed) : 0
Retry sector count : 0
Damaged sector count : 0

Track 22
Filename : /Schönberg Ensemble Edition [Etcetera]/Vol. 2/22 5 geistliche Lieder Op. 15: III. In Gottes Namen aufstehn.flac

Track gain : 2.19 dB
Peak : 0.682983
CRC32 hash (test run) : 9C0487CE
CRC32 hash : 9C0487CE
CRC32 hash (skip zero) : 8EEED7D2
AccurateRip v1 signature : 551E3183
AccurateRip v2 signature : 77FB68E7
->Accurately ripped (v1+v2, confidence 3+3/6)
Statistics
Read error : 0
Jitter error (maybe fixed) : 0
Retry sector count : 0
Damaged sector count : 0

Track 23
Filename : /Schönberg Ensemble Edition [Etcetera]/Vol. 2/23 5 geistliche Lieder Op. 15: IV. Mein Weg geht jetzt vorüber.flac

Track gain : 2.83 dB
Peak : 0.674500
CRC32 hash (test run) : 6E94F667
CRC32 hash : 6E94F667
CRC32 hash (skip zero) : 5265E62D
AccurateRip v1 signature : 6928983D
AccurateRip v2 signature : C20E870D
->Accurately ripped (v1+v2, confidence 3+3/6)
Statistics
Read error : 0
Jitter error (maybe fixed) : 0
Retry sector count : 0
Damaged sector count : 0

Track 24
Filename : /Schönberg Ensemble Edition [Etcetera]/Vol. 2/24 5 geistliche Lieder Op. 15: V. Fahr hin, o Seel'.flac

Track gain : 2.67 dB
Peak : 0.546814
CRC32 hash (test run) : FEE9FDCA
CRC32 hash : FEE9FDCA
CRC32 hash (skip zero) : E077C94F
AccurateRip v1 signature : 04CF8104
AccurateRip v2 signature : 42332075
->Accurately ripped (v1+v2, confidence 3+3/6)
Statistics
Read error : 0
Jitter error (maybe fixed) : 0
Retry sector count : 0
Damaged sector count : 0

Track 25
Filename : /Schönberg Ensemble Edition [Etcetera]/Vol. 2/25 5 Canons Op. 16: I. Christus factus est.flac

Track gain : -3.11 dB
Peak : 0.929443
CRC32 hash (test run) : AF9BA70E
CRC32 hash : AF9BA70E
CRC32 hash (skip zero) : 1F84B0CF
AccurateRip v1 signature : 4893D876
AccurateRip v2 signature : 19CBC614
->Accurately ripped (v1+v2, confidence 3+3/6)
Statistics
Read error : 0
Jitter error (maybe fixed) : 0
Retry sector count : 0
Damaged sector count : 0

Track 26
Filename : /Schönberg Ensemble Edition [Etcetera]/Vol. 2/26 5 Canons Op. 16: II. Dormi Jesu.flac

Track gain : 6.39 dB
Peak : 0.630493
CRC32 hash (test run) : FA53BF79
CRC32 hash : FA53BF79
CRC32 hash (skip zero) : 8E472A46
AccurateRip v1 signature : AC74EE1B
AccurateRip v2 signature : 09AA700A
->Accurately ripped (v1+v2, confidence 3+3/6)
Statistics
Read error : 0
Jitter error (maybe fixed) : 0
Retry sector count : 0
Damaged sector count : 0

Track 27
Filename : /Schönberg Ensemble Edition [Etcetera]/Vol. 2/27 5 Canons Op. 16: III. Crux fidelis.flac

Track gain : 3.97 dB
Peak : 0.871216
CRC32 hash (test run) : 85BDFAA1
CRC32 hash : 85BDFAA1
CRC32 hash (skip zero) : C9D44B8C
AccurateRip v1 signature : 278690DA
AccurateRip v2 signature : 854680FE
->Accurately ripped (v1+v2, confidence 3+3/6)
Statistics
Read error : 0
Jitter error (maybe fixed) : 0
Retry sector count : 0
Damaged sector count : 0

Track 28
Filename : /Schönberg Ensemble Edition [Etcetera]/Vol. 2/28 5 Canons Op. 16: IV. Asperges me, Domine.flac

Track gain : 2.63 dB
Peak : 0.806519
CRC32 hash (test run) : 0DD0FC67
CRC32 hash : 0DD0FC67
CRC32 hash (skip zero) : 1230AFD4
AccurateRip v1 signature : 4E34287F
AccurateRip v2 signature : 994AC3EC
->Accurately ripped (v1+v2, confidence 3+3/6)
Statistics
Read error : 0
Jitter error (maybe fixed) : 0
Retry sector count : 0
Damaged sector count : 0

Track 29
Filename : /Schönberg Ensemble Edition [Etcetera]/Vol. 2/29 5 Canons Op. 16: V. Crucem tuam adoramus.flac

Track gain : -3.81 dB
Peak : 0.955383
CRC32 hash (test run) : E92F8291
CRC32 hash : E92F8291
CRC32 hash (skip zero) : 71314A0C
AccurateRip v1 signature : 55FA3EFB
AccurateRip v2 signature : 4BD52A47
->Accurately ripped (v1+v2, confidence 3+3/6)
Statistics
Read error : 0
Jitter error (maybe fixed) : 0
Retry sector count : 0
Damaged sector count : 0

Track 30
Filename : /Schönberg Ensemble Edition [Etcetera]/Vol. 2/30 3 Volkstexte Op. 17: I. Armer Sünder.flac

Track gain : -2.84 dB
Peak : 0.827942
CRC32 hash (test run) : C8B34A83
CRC32 hash : C8B34A83
CRC32 hash (skip zero) : 8D0812A1
AccurateRip v1 signature : 48683072
AccurateRip v2 signature : 7B355FF5
->Accurately ripped (v1+v2, confidence 3+3/6)
Statistics
Read error : 0
Jitter error (maybe fixed) : 0
Retry sector count : 0
Damaged sector count : 0

Track 31
Filename : /Schönberg Ensemble Edition [Etcetera]/Vol. 2/31 3 Volkstexte Op. 17: II. Liebste Jungfrau.flac

Track gain : -3.01 dB
Peak : 0.955414
CRC32 hash (test run) : 313CC16E
CRC32 hash : 313CC16E
CRC32 hash (skip zero) : 1105B0E9
AccurateRip v1 signature : 5B665ECC
AccurateRip v2 signature : 30433B7E
->Accurately ripped (v1+v2, confidence 3+3/6)
Statistics
Read error : 0
Jitter error (maybe fixed) : 0
Retry sector count : 0
Damaged sector count : 0

Track 32
Filename : /Schönberg Ensemble Edition [Etcetera]/Vol. 2/32 3 Volkstexte Op. 17: III. Heiland, unsre Missetaten.flac

Track gain : -2.18 dB
Peak : 0.955353
CRC32 hash (test run) : CC2C17C2
CRC32 hash : CC2C17C2
CRC32 hash (skip zero) : 03931428
AccurateRip v1 signature : B356B553
AccurateRip v2 signature : D02DCD2C
->Accurately ripped (v1+v2, confidence 3+3/6)
Statistics
Read error : 0
Jitter error (maybe fixed) : 0
Retry sector count : 0
Damaged sector count : 0

Track 33
Filename : /Schönberg Ensemble Edition [Etcetera]/Vol. 2/33 3 Lieder Op. 18: I. Schatzerl klein.flac

Track gain : 2.18 dB
Peak : 0.653931
CRC32 hash (test run) : 4FB07800
CRC32 hash : 4FB07800
CRC32 hash (skip zero) : 1BF01833
AccurateRip v1 signature : DB878DEF
AccurateRip v2 signature : B923195B
->Accurately ripped (v1+v2, confidence 3+3/6)
Statistics
Read error : 0
Jitter error (maybe fixed) : 0
Retry sector count : 0
Damaged sector count : 0

Track 34
Filename : /Schönberg Ensemble Edition [Etcetera]/Vol. 2/34 3 Lieder Op. 18: II. Erlösung.flac

Track gain : -2.34 dB
Peak : 0.955292
CRC32 hash (test run) : 6F23A629
CRC32 hash : 6F23A629
CRC32 hash (skip zero) : BC431C73
AccurateRip v1 signature : 6DCD6A9F
AccurateRip v2 signature : 0E796466
->Accurately ripped (v1+v2, confidence 3+3/6)
Statistics
Read error : 0
Jitter error (maybe fixed) : 0
Retry sector count : 0
Damaged sector count : 0

Track 35
Filename : /Schönberg Ensemble Edition [Etcetera]/Vol. 2/35 3 Lieder Op. 18: III. Ave, Regina Coelorum.flac

Track gain : -1.13 dB
Peak : 0.955292
CRC32 hash (test run) : 19FE846C
CRC32 hash : 19FE846C
CRC32 hash (skip zero) : 943E9A8F
AccurateRip v1 signature : ECE9DE17
AccurateRip v2 signature : 3A5588B6
->Accurately ripped (v1+v2, confidence 3+3/6)
Statistics
Read error : 0
Jitter error (maybe fixed) : 0
Retry sector count : 0
Damaged sector count : 0

Track 36
Filename : /Schönberg Ensemble Edition [Etcetera]/Vol. 2/36 2 Lieder Op. 19: I. Weiß wie Lilien.flac

Track gain : 5.58 dB
Peak : 0.592926
CRC32 hash (test run) : 6F54EF3A
CRC32 hash : 6F54EF3A
CRC32 hash (skip zero) : F2E43225
AccurateRip v1 signature : B80D4DD4
AccurateRip v2 signature : 93E32487
->Accurately ripped (v1+v2, confidence 3+3/6)
Statistics
Read error : 0
Jitter error (maybe fixed) : 0
Retry sector count : 0
Damaged sector count : 0

Track 37
Filename : /Schönberg Ensemble Edition [Etcetera]/Vol. 2/37 2 Lieder Op. 19: II. Ziehn die Schafe.flac

Track gain : 4.93 dB
Peak : 0.377441
CRC32 hash (test run) : BC944C91
CRC32 hash : BC944C91
CRC32 hash (skip zero) : CA6A5C65
AccurateRip v1 signature : 718CDE83
AccurateRip v2 signature : 92A48D13
->Accurately ripped (v1+v2, confidence 3+3/6)
Statistics
Read error : 0
Jitter error (maybe fixed) : 0
Retry sector count : 0
Damaged sector count : 0

Track 38
Filename : /Schönberg Ensemble Edition [Etcetera]/Vol. 2/38 Entflieht auf leichten Kähnen Op. 2 [1914 version].flac

Track gain : 3.95 dB
Peak : 0.691467
CRC32 hash (test run) : 4C192B17
CRC32 hash : 4C192B17
CRC32 hash (skip zero) : 53F16387
AccurateRip v1 signature : D36D4589
AccurateRip v2 signature : 2089F7BE
->Accurately ripped (v1+v2, confidence 3+3/6)
Statistics
Read error : 0
Jitter error (maybe fixed) : 0
Retry sector count : 0
Damaged sector count : 0

No errors occurred

End of status report

––-BEGIN XLD SIGNATURE––-
0lIHYYYt2EPc6sDGNx.9au_01.gVgR3DSQhUeBV6MWLQb4h.j4z7N.FFwE14Fz1bm27zMVMdfSJ41m0fpMWob7bQQ5g2LCPO0o9reXu
––-END XLD SIGNATURE––-
X Lossless Decoder version 20151214 (149.1)

XLD extraction logfile from 2016-04-13 21:28:25 +0200

Schönberg Ensemble / Schönberg Ensemble Edition Vol. 3 - Gustav Mahler - Lieder eines fahrenden Gesellen • Kindertotenlieder - Alexander Zemlinsky - Maeterlinck Gesänge - Karol Szymanowski - Słopiewnie [Etcetera]

Used drive : TSSTcorp CDDVDW SE-S084D (revision TS01)
Media type : Pressed CD

Ripper mode : XLD Secure Ripper
Disable audio cache : OK for the drive with a cache less than 1375KiB
Make use of C2 pointers : NO
Read offset correction : 6
Max retry count : 100
Gap status : Analyzed, Appended (except HTOA)

TOC of the extracted CD
Track | Start | Length | Start sector | End sector
––––––––––––––––––––––––––––-
1 | 00:00:00 | 03:49:42 | 0 | 17216
2 | 03:49:42 | 04:39:69 | 17217 | 38210
3 | 08:29:36 | 03:08:73 | 38211 | 52383
4 | 11:38:34 | 05:13:61 | 52384 | 75919
5 | 16:52:20 | 05:53:02 | 75920 | 102396
6 | 22:45:22 | 04:44:09 | 102397 | 123705
7 | 27:29:31 | 04:57:03 | 123706 | 145983
8 | 32:26:34 | 03:19:14 | 145984 | 160922
9 | 35:45:48 | 06:02:31 | 160923 | 188103
10 | 41:48:04 | 03:33:68 | 188104 | 204146
11 | 45:21:72 | 02:55:30 | 204147 | 217301
12 | 48:17:27 | 02:23:31 | 217302 | 228057
13 | 50:40:58 | 01:55:17 | 228058 | 236699
14 | 52:36:00 | 03:11:35 | 236700 | 251059
15 | 55:47:35 | 04:00:50 | 251060 | 269109
16 | 59:48:10 | 02:04:30 | 269110 | 278439
17 | 61:52:40 | 01:50:51 | 278440 | 286740
18 | 63:43:16 | 02:18:50 | 286741 | 297140
19 | 66:01:66 | 01:06:25 | 297141 | 302115
20 | 67:08:16 | 02:17:68 | 302116 | 312458

AccurateRip Summary (DiscID: 0039cd58-0338f22a-0c104614)
Track 01 : OK (v1+v2, confidence 6/6)
Track 02 : OK (v1+v2, confidence 6/6)
Track 03 : OK (v1+v2, confidence 6/6)
Track 04 : OK (v1+v2, confidence 6/6)
Track 05 : OK (v1+v2, confidence 6/6)
Track 06 : OK (v1+v2, confidence 6/6)
Track 07 : OK (v1+v2, confidence 6/6)
Track 08 : OK (v1+v2, confidence 6/6)
Track 09 : OK (v1+v2, confidence 6/6)
Track 10 : OK (v1+v2, confidence 6/6)
Track 11 : OK (v1+v2, confidence 6/6)
Track 12 : OK (v1+v2, confidence 6/6)
Track 13 : OK (v1+v2, confidence 6/6)
Track 14 : OK (v1+v2, confidence 6/6)
Track 15 : OK (v1+v2, confidence 6/6)
Track 16 : OK (v1+v2, confidence 6/6)
Track 17 : OK (v1+v2, confidence 6/6)
Track 18 : OK (v1+v2, confidence 6/6)
Track 19 : OK (v1+v2, confidence 6/6)
Track 20 : OK (v1+v2, confidence 6/6)
->All tracks accurately ripped.

All Tracks
Album gain : 3.97 dB
Peak : 1.000000
Statistics
Read error : 0
Jitter error (maybe fixed) : 0
Retry sector count : 0
Damaged sector count : 0

Track 01
Filename : /Schönberg Ensemble Edition [Etcetera]/Vol. 3/01 Lieder eines fahrenden Gesellen [arr. Arnold Schönberg]: I. Wenn mein Schatz Hochzeit macht.flac
Pre-gap length : 00:02:00

Track gain : 9.38 dB
Peak : 0.541077
CRC32 hash (test run) : A013C003
CRC32 hash : A013C003
CRC32 hash (skip zero) : 92E1B6FF
AccurateRip v1 signature : 42E8599E
AccurateRip v2 signature : FE67F083
->Accurately ripped (v1+v2, confidence 3+3/6)
Statistics
Read error : 0
Jitter error (maybe fixed) : 0
Retry sector count : 0
Damaged sector count : 0

Track 02
Filename : /Schönberg Ensemble Edition [Etcetera]/Vol. 3/02 Lieder eines fahrenden Gesellen [arr. Arnold Schönberg]: II. Ging heut'morgen über's Feld.flac

Track gain : 5.25 dB
Peak : 0.680115
CRC32 hash (test run) : 167F274F
CRC32 hash : 167F274F
CRC32 hash (skip zero) : E9098483
AccurateRip v1 signature : 5B2B467C
AccurateRip v2 signature : 0537B97F
->Accurately ripped (v1+v2, confidence 3+3/6)
Statistics
Read error : 0
Jitter error (maybe fixed) : 0
Retry sector count : 0
Damaged sector count : 0

Track 03
Filename : /Schönberg Ensemble Edition [Etcetera]/Vol. 3/03 Lieder eines fahrenden Gesellen [arr. Arnold Schönberg]: III. Ich hab'ein glühend' Messer.flac

Track gain : 0.34 dB
Peak : 0.689819
CRC32 hash (test run) : 49815A20
CRC32 hash : 49815A20
CRC32 hash (skip zero) : 5AD03BBC
AccurateRip v1 signature : E7836B38
AccurateRip v2 signature : AEA1DC87
->Accurately ripped (v1+v2, confidence 3+3/6)
Statistics
Read error : 0
Jitter error (maybe fixed) : 0
Retry sector count : 0
Damaged sector count : 0

Track 04
Filename : /Schönberg Ensemble Edition [Etcetera]/Vol. 3/04 Lieder eines fahrenden Gesellen [arr. Arnold Schönberg]: IV. Die zwei blauen Augen von meinem Schatz.flac

Track gain : 8.86 dB
Peak : 0.297791
CRC32 hash (test run) : 0691187C
CRC32 hash : 0691187C
CRC32 hash (skip zero) : 7D742C51
AccurateRip v1 signature : 75C61003
AccurateRip v2 signature : 5353FF78
->Accurately ripped (v1+v2, confidence 3+3/6)
Statistics
Read error : 0
Jitter error (maybe fixed) : 0
Retry sector count : 0
Damaged sector count : 0

Track 05
Filename : /Schönberg Ensemble Edition [Etcetera]/Vol. 3/05 Kindertotenlieder [arr. Reinbert de Leeuw, 1983]: I. Nun will die Sonn'so hell aufgehn.flac

Track gain : 6.30 dB
Peak : 0.431549
CRC32 hash (test run) : 929ED664
CRC32 hash : 929ED664
CRC32 hash (skip zero) : D2DA24B2
AccurateRip v1 signature : 70A51715
AccurateRip v2 signature : CE1FECF1
->Accurately ripped (v1+v2, confidence 3+3/6)
Statistics
Read error : 0
Jitter error (maybe fixed) : 0
Retry sector count : 0
Damaged sector count : 0

Track 06
Filename : /Schönberg Ensemble Edition [Etcetera]/Vol. 3/06 Kindertotenlieder [arr. Reinbert de Leeuw, 1983]: II. Nun seh' ich wohl, warum so dunkle Flammen.flac

Track gain : 4.89 dB
Peak : 0.487305
CRC32 hash (test run) : 9441D226
CRC32 hash : 9441D226
CRC32 hash (skip zero) : BA08477F
AccurateRip v1 signature : 3F4097B8
AccurateRip v2 signature : FB68A427
->Accurately ripped (v1+v2, confidence 3+3/6)
Statistics
Read error : 0
Jitter error (maybe fixed) : 0
Retry sector count : 0
Damaged sector count : 0

Track 07
Filename : /Schönberg Ensemble Edition [Etcetera]/Vol. 3/07 Kindertotenlieder [arr. Reinbert de Leeuw, 1983]: III. Wenn dein Mütterlein tritt zur Tür hinein.flac

Track gain : 5.94 dB
Peak : 0.513397
CRC32 hash (test run) : 95EBC4AD
CRC32 hash : 95EBC4AD
CRC32 hash (skip zero) : 76231AD4
AccurateRip v1 signature : AB84247D
AccurateRip v2 signature : 7A7059B7
->Accurately ripped (v1+v2, confidence 3+3/6)
Statistics
Read error : 0
Jitter error (maybe fixed) : 0
Retry sector count : 0
Damaged sector count : 0

Track 08
Filename : /Schönberg Ensemble Edition [Etcetera]/Vol. 3/08 Kindertotenlieder [arr. Reinbert de Leeuw, 1983]: IV. Oft denk'ich, sie sind nur ausgegangen.flac

Track gain : 4.86 dB
Peak : 0.402191
CRC32 hash (test run) : C6E79C00
CRC32 hash : C6E79C00
CRC32 hash (skip zero) : 7DFC842D
AccurateRip v1 signature : D39A8549
AccurateRip v2 signature : 2FE307B5
->Accurately ripped (v1+v2, confidence 3+3/6)
Statistics
Read error : 0
Jitter error (maybe fixed) : 0
Retry sector count : 0
Damaged sector count : 0

Track 09
Filename : /Schönberg Ensemble Edition [Etcetera]/Vol. 3/09 Kindertotenlieder [arr. Reinbert de Leeuw, 1983]: V. In diesem Wetter, in diesem Braus.flac

Track gain : 1.88 dB
Peak : 0.715698
CRC32 hash (test run) : 9A185CE8
CRC32 hash : 9A185CE8
CRC32 hash (skip zero) : 0A7D01AE
AccurateRip v1 signature : 5DBB65F3
AccurateRip v2 signature : 9911114E
->Accurately ripped (v1+v2, confidence 3+3/6)
Statistics
Read error : 0
Jitter error (maybe fixed) : 0
Retry sector count : 0
Damaged sector count : 0

Track 10
Filename : /Schönberg Ensemble Edition [Etcetera]/Vol. 3/10 Sechs Gesänge nach Texten von Maurice Maeterlinck Op. 13: I. Die drei Schwestern.flac

Track gain : -0.44 dB
Peak : 0.999969
CRC32 hash (test run) : 7F74AB6D
CRC32 hash : 7F74AB6D
CRC32 hash (skip zero) : 7F50D723
AccurateRip v1 signature : 94E239AA
AccurateRip v2 signature : F3C6DA44
->Accurately ripped (v1+v2, confidence 3+3/6)
Statistics
Read error : 0
Jitter error (maybe fixed) : 0
Retry sector count : 0
Damaged sector count : 0

Track 11
Filename : /Schönberg Ensemble Edition [Etcetera]/Vol. 3/11 Sechs Gesänge nach Texten von Maurice Maeterlinck Op. 13: II. Die Mädchen mit den verbundenen Augen.flac

Track gain : 7.59 dB
Peak : 0.683716
CRC32 hash (test run) : F8CA1865
CRC32 hash : F8CA1865
CRC32 hash (skip zero) : B2DF843A
AccurateRip v1 signature : 1454CD65
AccurateRip v2 signature : C02DDB8B
->Accurately ripped (v1+v2, confidence 3+3/6)
Statistics
Read error : 0
Jitter error (maybe fixed) : 0
Retry sector count : 0
Damaged sector count : 0

Track 12
Filename : /Schönberg Ensemble Edition [Etcetera]/Vol. 3/12 Sechs Gesänge nach Texten von Maurice Maeterlinck Op. 13: III. Lied der Jungfrau.flac

Track gain : 6.69 dB
Peak : 0.435181
CRC32 hash (test run) : 193451B9
CRC32 hash : 193451B9
CRC32 hash (skip zero) : 44DD81A0
AccurateRip v1 signature : 2BAAFAD8
AccurateRip v2 signature : EEEADCC8
->Accurately ripped (v1+v2, confidence 3+3/6)
Statistics
Read error : 0
Jitter error (maybe fixed) : 0
Retry sector count : 0
Damaged sector count : 0

Track 13
Filename : /Schönberg Ensemble Edition [Etcetera]/Vol. 3/13 Sechs Gesänge nach Texten von Maurice Maeterlinck Op. 13: IV. Als ihr Geliebter schied.flac

Track gain : 2.29 dB
Peak : 0.824219
CRC32 hash (test run) : DD8BE71B
CRC32 hash : DD8BE71B
CRC32 hash (skip zero) : 4AE92B1A
AccurateRip v1 signature : 64F0EC51
AccurateRip v2 signature : 9D960AB3
->Accurately ripped (v1+v2, confidence 3+3/6)
Statistics
Read error : 0
Jitter error (maybe fixed) : 0
Retry sector count : 0
Damaged sector count : 0

Track 14
Filename : /Schönberg Ensemble Edition [Etcetera]/Vol. 3/14 Sechs Gesänge nach Texten von Maurice Maeterlinck Op. 13: V. Und kehrt er einst heim.flac

Track gain : 4.75 dB
Peak : 0.684540
CRC32 hash (test run) : 7558666D
CRC32 hash : 7558666D
CRC32 hash (skip zero) : 8B0DEFEA
AccurateRip v1 signature : 7A22482F
AccurateRip v2 signature : 1EA6C870
->Accurately ripped (v1+v2, confidence 3+3/6)
Statistics
Read error : 0
Jitter error (maybe fixed) : 0
Retry sector count : 0
Damaged sector count : 0

Track 15
Filename : /Schönberg Ensemble Edition [Etcetera]/Vol. 3/15 Sechs Gesänge nach Texten von Maurice Maeterlinck Op. 13: VI. Sie kam zum Schloß gegangen.flac

Track gain : 5.68 dB
Peak : 0.615631
CRC32 hash (test run) : 224BA202
CRC32 hash : 224BA202
CRC32 hash (skip zero) : 447DFA85
AccurateRip v1 signature : 3519EECB
AccurateRip v2 signature : EAFFB427
->Accurately ripped (v1+v2, confidence 3+3/6)
Statistics
Read error : 0
Jitter error (maybe fixed) : 0
Retry sector count : 0
Damaged sector count : 0

Track 16
Filename : /Schönberg Ensemble Edition [Etcetera]/Vol. 3/16 Słopiewnie Op. 46: I. Slowisień.flac

Track gain : 6.70 dB
Peak : 0.436676
CRC32 hash (test run) : 32CCC5AB
CRC32 hash : 32CCC5AB
CRC32 hash (skip zero) : DD6A40D0
AccurateRip v1 signature : F989A974
AccurateRip v2 signature : 6E5B643B
->Accurately ripped (v1+v2, confidence 3+3/6)
Statistics
Read error : 0
Jitter error (maybe fixed) : 0
Retry sector count : 0
Damaged sector count : 0

Track 17
Filename : /Schönberg Ensemble Edition [Etcetera]/Vol. 3/17 Słopiewnie Op. 46: II. Zielone słowa.flac

Track gain : -0.85 dB
Peak : 0.671387
CRC32 hash (test run) : 4D57A077
CRC32 hash : 4D57A077
CRC32 hash (skip zero) : 1A198A60
AccurateRip v1 signature : 7B0AFA83
AccurateRip v2 signature : 73D59076
->Accurately ripped (v1+v2, confidence 3+3/6)
Statistics
Read error : 0
Jitter error (maybe fixed) : 0
Retry sector count : 0
Damaged sector count : 0

Track 18
Filename : /Schönberg Ensemble Edition [Etcetera]/Vol. 3/18 Słopiewnie Op. 46: III. Św. Franciszek.flac

Track gain : 8.85 dB
Peak : 0.274353
CRC32 hash (test run) : 9BAF523B
CRC32 hash : 9BAF523B
CRC32 hash (skip zero) : 9206D3A5
AccurateRip v1 signature : 8E7D9152
AccurateRip v2 signature : 3A738A25
->Accurately ripped (v1+v2, confidence 3+3/6)
Statistics
Read error : 0
Jitter error (maybe fixed) : 0
Retry sector count : 0
Damaged sector count : 0

Track 19
Filename : /Schönberg Ensemble Edition [Etcetera]/Vol. 3/19 Słopiewnie Op. 46: IV. Kalinowe dwory.flac

Track gain : -1.39 dB
Peak : 1.000000
CRC32 hash (test run) : 19C50175
CRC32 hash : 19C50175
CRC32 hash (skip zero) : 98472967
AccurateRip v1 signature : C84A3F21
AccurateRip v2 signature : 58608A8C
->Accurately ripped (v1+v2, confidence 3+3/6)
Statistics
Read error : 0
Jitter error (maybe fixed) : 0
Retry sector count : 0
Damaged sector count : 0

Track 20
Filename : /Schönberg Ensemble Edition [Etcetera]/Vol. 3/20 Słopiewnie Op. 46: V. Wanda.flac

Track gain : 6.84 dB
Peak : 0.358124
CRC32 hash (test run) : 9AE6A013
CRC32 hash : 9AE6A013
CRC32 hash (skip zero) : 1575AF67
AccurateRip v1 signature : 2A7FF48B
AccurateRip v2 signature : 039C5B6B
->Accurately ripped (v1+v2, confidence 3+3/6)
Statistics
Read error : 0
Jitter error (maybe fixed) : 0
Retry sector count : 0
Damaged sector count : 0

No errors occurred

End of status report

––-BEGIN XLD SIGNATURE––-
gnlp37qSI8XeqywW7d6VqurGU1eEmSUbrwoWHyUlvF7_pBFZY31DQf2qRRnXK9WXWkMMxdD7Uz4W8570bVWsbR0r5jUWD71HkV5vQ64
––-END XLD SIGNATURE––-
X Lossless Decoder version 20151214 (149.1)

XLD extraction logfile from 2016-04-14 12:19:30 +0200

Schönberg Ensemble / Schönberg Ensemble Edition Vol. 17 - Sofia Gubaidulina - Stimmen…verstummen… • Now Always Snow [Etcetera]

Used drive : TSSTcorp CDDVDW SE-S084D (revision TS01)
Media type : Pressed CD

Ripper mode : XLD Secure Ripper
Disable audio cache : OK for the drive with a cache less than 1375KiB
Make use of C2 pointers : NO
Read offset correction : 6
Max retry count : 100
Gap status : Analyzed, Appended (except HTOA)

TOC of the extracted CD
Track | Start | Length | Start sector | End sector
––––––––––––––––––––––––––––-
1 | 00:00:00 | 01:45:03 | 0 | 7877
2 | 01:45:03 | 02:36:20 | 7878 | 19597
3 | 04:21:23 | 00:47:10 | 19598 | 23132
4 | 05:08:33 | 02:10:64 | 23133 | 32946
5 | 07:19:22 | 00:33:53 | 32947 | 35474
6 | 07:53:00 | 04:44:18 | 35475 | 56792
7 | 12:37:18 | 00:25:00 | 56793 | 58667
8 | 13:02:18 | 12:06:16 | 58668 | 113133
9 | 25:08:34 | 01:03:70 | 113134 | 117928
10 | 26:12:29 | 01:40:04 | 117929 | 125432
11 | 27:52:33 | 03:00:44 | 125433 | 138976
12 | 30:53:02 | 05:23:72 | 138977 | 163273
13 | 36:16:74 | 07:23:54 | 163274 | 196552
14 | 43:40:53 | 03:43:06 | 196553 | 213283
15 | 47:23:59 | 04:24:59 | 213284 | 233142
16 | 51:48:43 | 06:38:33 | 233143 | 263025
17 | 58:27:01 | 05:36:21 | 263026 | 288246

AccurateRip Summary (DiscID: 001fda44-01ad14de-de0f0311)
Track 01 : OK (v1+v2, confidence 6/6)
Track 02 : OK (v1+v2, confidence 6/6)
Track 03 : OK (v1+v2, confidence 6/6)
Track 04 : OK (v1+v2, confidence 6/6)
Track 05 : OK (v1+v2, confidence 6/6)
Track 06 : OK (v1+v2, confidence 6/6)
Track 07 : OK (v1+v2, confidence 6/6)
Track 08 : OK (v1+v2, confidence 6/6)
Track 09 : OK (v1+v2, confidence 6/6)
Track 10 : OK (v1+v2, confidence 6/6)
Track 11 : OK (v1+v2, confidence 6/6)
Track 12 : OK (v1+v2, confidence 6/6)
Track 13 : OK (v1+v2, confidence 6/6)
Track 14 : OK (v1+v2, confidence 6/6)
Track 15 : OK (v1+v2, confidence 6/6)
Track 16 : OK (v1+v2, confidence 6/6)
Track 17 : OK (v1+v2, confidence 6/6)
->All tracks accurately ripped.

All Tracks
Album gain : 2.96 dB
Peak : 1.000000
Statistics
Read error : 0
Jitter error (maybe fixed) : 0
Retry sector count : 0
Damaged sector count : 0

Track 01
Filename : /Schönberg Ensemble Edition [Etcetera]/Vol. 17/01 Stimmen…verstummen…: I.flac
Pre-gap length : 00:02:00

Track gain : 21.34 dB
Peak : 0.293518
CRC32 hash (test run) : 0869F8D0
CRC32 hash : 0869F8D0
CRC32 hash (skip zero) : 6AF41C7A
AccurateRip v1 signature : 8C668AAD
AccurateRip v2 signature : C473B062
->Accurately ripped (v1+v2, confidence 3+3/6)
Statistics
Read error : 0
Jitter error (maybe fixed) : 0
Retry sector count : 0
Damaged sector count : 0

Track 02
Filename : /Schönberg Ensemble Edition [Etcetera]/Vol. 17/02 Stimmen…verstummen…: II.flac

Track gain : 4.65 dB
Peak : 0.447327
CRC32 hash (test run) : 79C91AB7
CRC32 hash : 79C91AB7
CRC32 hash (skip zero) : DAE4D3F3
AccurateRip v1 signature : 4EEF32D7
AccurateRip v2 signature : 37DB7E2B
->Accurately ripped (v1+v2, confidence 3+3/6)
Statistics
Read error : 0
Jitter error (maybe fixed) : 0
Retry sector count : 0
Damaged sector count : 0

Track 03
Filename : /Schönberg Ensemble Edition [Etcetera]/Vol. 17/03 Stimmen…verstummen…: III.flac

Track gain : 8.97 dB
Peak : 0.591248
CRC32 hash (test run) : D5A4BB5E
CRC32 hash : D5A4BB5E
CRC32 hash (skip zero) : 2D6E121B
AccurateRip v1 signature : A5D5F57E
AccurateRip v2 signature : EBCD789D
->Accurately ripped (v1+v2, confidence 3+3/6)
Statistics
Read error : 0
Jitter error (maybe fixed) : 0
Retry sector count : 0
Damaged sector count : 0

Track 04
Filename : /Schönberg Ensemble Edition [Etcetera]/Vol. 17/04 Stimmen…verstummen…: IV.flac

Track gain : 3.58 dB
Peak : 0.579987
CRC32 hash (test run) : 98E8046E
CRC32 hash : 98E8046E
CRC32 hash (skip zero) : F1D6B2DE
AccurateRip v1 signature : 982006D0
AccurateRip v2 signature : 64CF05BB
->Accurately ripped (v1+v2, confidence 3+3/6)
Statistics
Read error : 0
Jitter error (maybe fixed) : 0
Retry sector count : 0
Damaged sector count : 0

Track 05
Filename : /Schönberg Ensemble Edition [Etcetera]/Vol. 17/05 Stimmen…verstummen…: V.flac

Track gain : 14.12 dB
Peak : 0.179291
CRC32 hash (test run) : 094F67F4
CRC32 hash : 094F67F4
CRC32 hash (skip zero) : 20479CEF
AccurateRip v1 signature : 4270D835
AccurateRip v2 signature : 292D6CCB
->Accurately ripped (v1+v2, confidence 3+3/6)
Statistics
Read error : 0
Jitter error (maybe fixed) : 0
Retry sector count : 0
Damaged sector count : 0

Track 06
Filename : /Schönberg Ensemble Edition [Etcetera]/Vol. 17/06 Stimmen…verstummen…: VI.flac

Track gain : 1.09 dB
Peak : 0.973053
CRC32 hash (test run) : 6E7551F5
CRC32 hash : 6E7551F5
CRC32 hash (skip zero) : 6484626E
AccurateRip v1 signature : B4B1BC6C
AccurateRip v2 signature : 5F467E8F
->Accurately ripped (v1+v2, confidence 3+3/6)
Statistics
Read error : 0
Jitter error (maybe fixed) : 0
Retry sector count : 0
Damaged sector count : 0

Track 07
Filename : /Schönberg Ensemble Edition [Etcetera]/Vol. 17/07 Stimmen…verstummen…: VII.flac

Track gain : 9.35 dB
Peak : 0.280426
CRC32 hash (test run) : 78658253
CRC32 hash : 78658253
CRC32 hash (skip zero) : 76F1BFEB
AccurateRip v1 signature : A3E6C27B
AccurateRip v2 signature : B92359F2
->Accurately ripped (v1+v2, confidence 3+3/6)
Statistics
Read error : 0
Jitter error (maybe fixed) : 0
Retry sector count : 0
Damaged sector count : 0

Track 08
Filename : /Schönberg Ensemble Edition [Etcetera]/Vol. 17/08 Stimmen…verstummen…: VIII.flac

Track gain : 1.90 dB
Peak : 1.000000
CRC32 hash (test run) : 1A98C1C9
CRC32 hash : 1A98C1C9
CRC32 hash (skip zero) : 9A088BE6
AccurateRip v1 signature : F0747646
AccurateRip v2 signature : 34C3CAC5
->Accurately ripped (v1+v2, confidence 3+3/6)
Statistics
Read error : 0
Jitter error (maybe fixed) : 0
Retry sector count : 0
Damaged sector count : 0

Track 09
Filename : /Schönberg Ensemble Edition [Etcetera]/Vol. 17/09 Stimmen…verstummen…: IX. Cadenza per direttore.flac

Track gain : 56.83 dB
Peak : 0.009155
CRC32 hash (test run) : 9C2C3AE1
CRC32 hash : 9C2C3AE1
CRC32 hash (skip zero) : A7D28D8C
AccurateRip v1 signature : 02EE1426
AccurateRip v2 signature : 51DC203C
->Accurately ripped (v1+v2, confidence 3+3/6)
Statistics
Read error : 0
Jitter error (maybe fixed) : 0
Retry sector count : 0
Damaged sector count : 0

Track 10
Filename : /Schönberg Ensemble Edition [Etcetera]/Vol. 17/10 Stimmen…verstummen…: X.flac

Track gain : 13.03 dB
Peak : 0.187164
CRC32 hash (test run) : 2ADB4D91
CRC32 hash : 2ADB4D91
CRC32 hash (skip zero) : 0B3E87A1
AccurateRip v1 signature : 05EFAB6C
AccurateRip v2 signature : 48621A8C
->Accurately ripped (v1+v2, confidence 3+3/6)
Statistics
Read error : 0
Jitter error (maybe fixed) : 0
Retry sector count : 0
Damaged sector count : 0

Track 11
Filename : /Schönberg Ensemble Edition [Etcetera]/Vol. 17/11 Stimmen…verstummen…: XI.flac

Track gain : 19.87 dB
Peak : 0.081604
CRC32 hash (test run) : 79BF69E4
CRC32 hash : 79BF69E4
CRC32 hash (skip zero) : 5B2366F6
AccurateRip v1 signature : 4E245B80
AccurateRip v2 signature : CB2BC152
->Accurately ripped (v1+v2, confidence 3+3/6)
Statistics
Read error : 0
Jitter error (maybe fixed) : 0
Retry sector count : 0
Damaged sector count : 0

Track 12
Filename : /Schönberg Ensemble Edition [Etcetera]/Vol. 17/12 Stimmen…verstummen…: XII.flac

Track gain : -0.07 dB
Peak : 0.999969
CRC32 hash (test run) : 51ECCD22
CRC32 hash : 51ECCD22
CRC32 hash (skip zero) : EB60BD32
AccurateRip v1 signature : 69B6CD9F
AccurateRip v2 signature : 78890777
->Accurately ripped (v1+v2, confidence 3+3/6)
Statistics
Read error : 0
Jitter error (maybe fixed) : 0
Retry sector count : 0
Damaged sector count : 0

Track 13
Filename : /Schönberg Ensemble Edition [Etcetera]/Vol. 17/13 Now Always Snow: I. You My Silence.flac

Track gain : 13.85 dB
Peak : 0.230713
CRC32 hash (test run) : 3B8BA29C
CRC32 hash : 3B8BA29C
CRC32 hash (skip zero) : 7DEB2A8E
AccurateRip v1 signature : 0892CE22
AccurateRip v2 signature : 212E4F5F
->Accurately ripped (v1+v2, confidence 3+3/6)
Statistics
Read error : 0
Jitter error (maybe fixed) : 0
Retry sector count : 0
Damaged sector count : 0

Track 14
Filename : /Schönberg Ensemble Edition [Etcetera]/Vol. 17/14 Now Always Snow: II. Writings: Apophatic.flac

Track gain : 0.96 dB
Peak : 0.865082
CRC32 hash (test run) : E66411DA
CRC32 hash : E66411DA
CRC32 hash (skip zero) : FE08121E
AccurateRip v1 signature : 1E4EA066
AccurateRip v2 signature : CC0C1D3D
->Accurately ripped (v1+v2, confidence 3+3/6)
Statistics
Read error : 0
Jitter error (maybe fixed) : 0
Retry sector count : 0
Damaged sector count : 0

Track 15
Filename : /Schönberg Ensemble Edition [Etcetera]/Vol. 17/15 Now Always Snow: III. Now Always Snow.flac

Track gain : 4.33 dB
Peak : 0.999939
CRC32 hash (test run) : BADEDB15
CRC32 hash : BADEDB15
CRC32 hash (skip zero) : 1BEC66C4
AccurateRip v1 signature : 12B20134
AccurateRip v2 signature : 5F486ED3
->Accurately ripped (v1+v2, confidence 3+3/6)
Statistics
Read error : 0
Jitter error (maybe fixed) : 0
Retry sector count : 0
Damaged sector count : 0

Track 16
Filename : /Schönberg Ensemble Edition [Etcetera]/Vol. 17/16 Now Always Snow: IV. Writings: Apophatic.flac

Track gain : -0.20 dB
Peak : 0.977478
CRC32 hash (test run) : 1AEB0631
CRC32 hash : 1AEB0631
CRC32 hash (skip zero) : CF8641B0
AccurateRip v1 signature : 0E01E1FC
AccurateRip v2 signature : 300CA41C
->Accurately ripped (v1+v2, confidence 3+3/6)
Statistics
Read error : 0
Jitter error (maybe fixed) : 0
Retry sector count : 0
Damaged sector count : 0

Track 17
Filename : /Schönberg Ensemble Edition [Etcetera]/Vol. 17/17 Now Always Snow: V. O Yes: Homeland.flac

Track gain : 17.37 dB
Peak : 0.157898
CRC32 hash (test run) : 1EE8D8D9
CRC32 hash : 1EE8D8D9
CRC32 hash (skip zero) : 52944610
AccurateRip v1 signature : F068BAF9
AccurateRip v2 signature : 995FB449
->Accurately ripped (v1+v2, confidence 3+3/6)
Statistics
Read error : 0
Jitter error (maybe fixed) : 0
Retry sector count : 0
Damaged sector count : 0

No errors occurred

End of status report

––-BEGIN XLD SIGNATURE––-
ecSrlaBrko_cjhEIgHk.X8UcTXNhVh1aTfSXZP2_pod5kHXOiPw7apzWreXrDh6Xr8h5yg9Lm0XgWeHaBHOJestH40y.pKXEKHiTM4O
––-END XLD SIGNATURE––-
X Lossless Decoder version 20151214 (149.1)

XLD extraction logfile from 2016-04-14 14:33:50 +0200

Schönberg Ensemble / Schönberg Ensemble Edition Vol. 25 - Elmer Schönberger - Dovemansoren - Alexander Skryabin/Klaas de Vries - Vers la flamme/Eclips - Michel van der Aa - Attach - Guus Janssen - Klotz [Etcetera]

Used drive : TSSTcorp CDDVDW SE-S084D (revision TS01)
Media type : Pressed CD

Ripper mode : XLD Secure Ripper
Disable audio cache : OK for the drive with a cache less than 1375KiB
Make use of C2 pointers : NO
Read offset correction : 6
Max retry count : 100
Gap status : Analyzed, Appended (except HTOA)

TOC of the extracted CD
Track | Start | Length | Start sector | End sector
––––––––––––––––––––––––––––-
1 | 00:00:00 | 04:45:03 | 0 | 21377
2 | 04:45:03 | 07:55:50 | 21378 | 57052
3 | 12:40:53 | 02:10:28 | 57053 | 66830
4 | 14:51:06 | 06:12:02 | 66831 | 94732
5 | 21:03:08 | 11:40:62 | 94733 | 147294
6 | 32:43:70 | 17:20:56 | 147295 | 225350
7 | 50:04:51 | 12:10:01 | 225351 | 280101

AccurateRip Summary (DiscID: 000d9f47-00565174-620e9607)
Track 01 : OK (v1+v2, confidence 6/6)
Track 02 : OK (v1+v2, confidence 6/6)
Track 03 : OK (v1+v2, confidence 6/6)
Track 04 : OK (v1+v2, confidence 6/6)
Track 05 : OK (v1+v2, confidence 6/6)
Track 06 : OK (v1+v2, confidence 6/6)
Track 07 : OK (v1+v2, confidence 6/6)
->All tracks accurately ripped.

All Tracks
Album gain : 1.74 dB
Peak : 0.977112
Statistics
Read error : 0
Jitter error (maybe fixed) : 0
Retry sector count : 0
Damaged sector count : 0

Track 01
Filename : /Schönberg Ensemble Edition [Etcetera]/Vol. 25/01 Dovemansoren: Cadenza - Lauter! - Sausen und brausen.flac
Pre-gap length : 00:02:00

Track gain : 0.23 dB
Peak : 0.977112
CRC32 hash (test run) : 5270BB93
CRC32 hash : 5270BB93
CRC32 hash (skip zero) : 05A71DEF
AccurateRip v1 signature : 8AA80B9C
AccurateRip v2 signature : 3278B714
->Accurately ripped (v1+v2, confidence 3+3/6)
Statistics
Read error : 0
Jitter error (maybe fixed) : 0
Retry sector count : 0
Damaged sector count : 0

Track 02
Filename : /Schönberg Ensemble Edition [Etcetera]/Vol. 25/02 Dovemansoren: 'Du kannst es kaum glauben' (intermezzo 1).flac

Track gain : 0.14 dB
Peak : 0.946289
CRC32 hash (test run) : 7EA9499C
CRC32 hash : 7EA9499C
CRC32 hash (skip zero) : D38D11E1
AccurateRip v1 signature : BF5DCC56
AccurateRip v2 signature : A4CA03A9
->Accurately ripped (v1+v2, confidence 3+3/6)
Statistics
Read error : 0
Jitter error (maybe fixed) : 0
Retry sector count : 0
Damaged sector count : 0

Track 03
Filename : /Schönberg Ensemble Edition [Etcetera]/Vol. 25/03 Dovemansoren: Ohrenzwang.flac

Track gain : 8.37 dB
Peak : 0.257629
CRC32 hash (test run) : 493CCE1D
CRC32 hash : 493CCE1D
CRC32 hash (skip zero) : A792E588
AccurateRip v1 signature : 53E15403
AccurateRip v2 signature : A6E28FCC
->Accurately ripped (v1+v2, confidence 3+3/6)
Statistics
Read error : 0
Jitter error (maybe fixed) : 0
Retry sector count : 0
Damaged sector count : 0

Track 04
Filename : /Schönberg Ensemble Edition [Etcetera]/Vol. 25/04 Dovemansoren: 'Mit Freude eil ich dem Tode entgegen' (intermezzo 2).flac

Track gain : 0.84 dB
Peak : 0.958588
CRC32 hash (test run) : DAE03125
CRC32 hash : DAE03125
CRC32 hash (skip zero) : 5D686D55
AccurateRip v1 signature : 9DF4981D
AccurateRip v2 signature : 518CF075
->Accurately ripped (v1+v2, confidence 3+3/6)
Statistics
Read error : 0
Jitter error (maybe fixed) : 0
Retry sector count : 0
Damaged sector count : 0

Track 05
Filename : /Schönberg Ensemble Edition [Etcetera]/Vol. 25/05 Vers la flamme/Eclips.flac

Track gain : 0.04 dB
Peak : 0.977051
CRC32 hash (test run) : 45C8A408
CRC32 hash : 45C8A408
CRC32 hash (skip zero) : 87349D40
AccurateRip v1 signature : EA1FF220
AccurateRip v2 signature : 1E37A43B
->Accurately ripped (v1+v2, confidence 3+3/6)
Statistics
Read error : 0
Jitter error (maybe fixed) : 0
Retry sector count : 0
Damaged sector count : 0

Track 06
Filename : /Schönberg Ensemble Edition [Etcetera]/Vol. 25/06 Attach.flac

Track gain : 3.56 dB
Peak : 0.584747
CRC32 hash (test run) : A2839494
CRC32 hash : A2839494
CRC32 hash (skip zero) : 0E980188
AccurateRip v1 signature : 800209F2
AccurateRip v2 signature : 647AE30C
->Accurately ripped (v1+v2, confidence 3+3/6)
Statistics
Read error : 0
Jitter error (maybe fixed) : 0
Retry sector count : 0
Damaged sector count : 0

Track 07
Filename : /Schönberg Ensemble Edition [Etcetera]/Vol. 25/07 Klotz.flac

Track gain : 2.50 dB
Peak : 0.713409
CRC32 hash (test run) : 38CD0CC8
CRC32 hash : 38CD0CC8
CRC32 hash (skip zero) : 98068D4E
AccurateRip v1 signature : C6DFCE23
AccurateRip v2 signature : DE90BE80
->Accurately ripped (v1+v2, confidence 3+3/6)
Statistics
Read error : 0
Jitter error (maybe fixed) : 0
Retry sector count : 0
Damaged sector count : 0

No errors occurred

End of status report

––-BEGIN XLD SIGNATURE––-
W4Wc8Fkj3E_Z.KpNB_kCjOyp3jCZIR9D_mex4BCajzz8lf3EBs0fxJMpeM0Zmfh7JztLF3gAw1H6TRiaJG2u3PLDYgU6x.8fjP.qfWy
––-END XLD SIGNATURE––-


Schoenberg Ensemble - Schoenberg Ensemble Edition (2006) {22CD+4DVD Set Etcetera KTC9000}

Schoenberg Ensemble - Schoenberg Ensemble Edition (2006) {22CD+4DVD Set Etcetera KTC9000}

Schoenberg Ensemble - Schoenberg Ensemble Edition (2006) {22CD+4DVD Set Etcetera KTC9000}

Schoenberg Ensemble - Schoenberg Ensemble Edition (2006) {22CD+4DVD Set Etcetera KTC9000}



===