Baby S03E01

Gesendet von: Kinosuchtig
720p (HD) / WEBRip IMDb
Baby S03E01

Baby S03E01
WEB-DL | MKV | 1280x720 | English / Deutsch | H264 @ 1540 kbps | E-AC-3 @ 640 kbps | 51 min 54 s | 1.00 GiB
Subtitles: Hrvatski, Français, Deutsch, Suomi, Español, Magyar, Polski, Italiano, Ελληνικά, Türkçe, Bahasa Indonesia, Svenska, Dansk, English, Nederlands, Русский, Português, Čeština
Genre: Drama


Zwei Mädchen aus einer reichen Gegend Roms haben ihre Familie und Klassenkameraden satt. Sie fühlen sich zur Unterwelt der Stadt hingezogen und beginnen ein Doppelleben.

baby.s03e01.german.dl.720p.web.x264-wayne.mkv (1.0 GB)



General
Unique ID : 11991001858020984457991528208155044006 (0x9056209489A4A790F46B2EED46068A6)
Complete name : ./baby.s03e01.german.dl.720p.web.x264-wayne.mkv
Format : Matroska
Format version : Version 4 / Version 2
File size : 1.00 GiB
Duration : 51 min 54 s
Overall bit rate mode : Variable
Overall bit rate : 2 767 kb/s
Encoded date : UTC 2020-09-16 07:58:48
Writing application : mkvmerge v50.0.0 ('Awakenings') 64-bit
Writing library : libebml v1.4.0 + libmatroska v1.6.2

Video
ID : 1
Format : AVC
Format/Info : Advanced Video Codec
Format profile : Main@L3.1
Format settings : CABAC / 3 Ref Frames
Format settings, CABAC : Yes
Format settings, RefFrames : 3 frames
Codec ID : V_MPEG4/ISO/AVC
Duration : 51 min 54 s
Bit rate mode : Variable
Bit rate : 1 540 kb/s
Maximum bit rate : 2 310 kb/s
Width : 1 280 pixels
Height : 720 pixels
Display aspect ratio : 16:9
Frame rate mode : Constant
Frame rate : 25.000 FPS
Color space : YUV
Chroma subsampling : 4:2:0
Bit depth : 8 bits
Scan type : Progressive
Bits/(Pixel*Frame) : 0.067
Stream size : 550 MiB (54%)
Writing library : x264 core 148 r2722 1b0121b
Encoding settings : cabac=1 / ref=3 / deblock=1:0:0 / analyse=0x1:0x111 / me=umh / subme=10 / psy=1 / psy_rd=1.00:0.00 / mixed_ref=1 / me_range=24 / chroma_me=1 / trellis=2 / 8x8dct=0 / cqm=0 / deadzone=21,11 / fast_pskip=1 / chroma_qp_offset=-2 / threads=8 / lookahead_threads=1 / sliced_threads=0 / nr=0 / decimate=1 / interlaced=0 / bluray_compat=0 / stitchable=1 / constrained_intra=0 / bframes=2 / b_pyramid=0 / b_adapt=2 / b_bias=0 / direct=3 / weightb=1 / open_gop=0 / weightp=2 / keyint=250 / keyint_min=25 / scenecut=0 / intra_refresh=0 / rc_lookahead=50 / rc=2pass / mbtree=1 / bitrate=1540 / ratetol=1.0 / qcomp=0.50 / qpmin=6 / qpmax=51 / qpstep=4 / cplxblur=20.0 / qblur=0.5 / vbv_maxrate=2310 / vbv_bufsize=3080 / nal_hrd=vbr / filler=0 / ip_ratio=1.40 / aq=1:1.00
Default : Yes
Forced : No

Audio #1
ID : 2
Format : E-AC-3
Format/Info : Enhanced Audio Coding 3
Format settings, Endianness : Big
Codec ID : A_EAC3
Duration : 51 min 54 s
Bit rate mode : Constant
Bit rate : 640 kb/s
Channel(s) : 6 channels
Channel positions : Front: L C R, Side: L R, LFE
Sampling rate : 48.0 kHz
Frame rate : 187.500 FPS (256 SPF)
Compression mode : Lossy
Stream size : 238 MiB (23%)
Language : German
Service kind : Complete Main
Default : Yes
Forced : No

Audio #2
ID : 3
Format : E-AC-3
Format/Info : Enhanced Audio Coding 3
Format settings, Endianness : Big
Codec ID : A_EAC3
Duration : 51 min 54 s
Bit rate mode : Constant
Bit rate : 640 kb/s
Channel(s) : 6 channels
Channel positions : Front: L C R, Side: L R, LFE
Sampling rate : 48.0 kHz
Frame rate : 187.500 FPS (256 SPF)
Compression mode : Lossy
Stream size : 238 MiB (23%)
Language : English
Service kind : Complete Main
Default : No
Forced : No

Text #1
ID : 4
Format : UTF-8
Codec ID : S_TEXT/UTF8
Codec ID/Info : UTF-8 Plain Text
Duration : 50 min 54 s
Bit rate : 1 b/s
Count of elements : 24
Stream size : 641 Bytes (0%)
Title : German Forced
Language : German
Default : Yes
Forced : Yes

Text #2
ID : 5
Format : UTF-8
Codec ID : S_TEXT/UTF8
Codec ID/Info : UTF-8 Plain Text
Duration : 50 min 54 s
Bit rate : 37 b/s
Count of elements : 471
Stream size : 13.9 KiB (0%)
Title : German
Language : German
Default : No
Forced : No

Text #3
ID : 6
Format : UTF-8
Codec ID : S_TEXT/UTF8
Codec ID/Info : UTF-8 Plain Text
Duration : 50 min 54 s
Bit rate : 34 b/s
Count of elements : 471
Stream size : 12.8 KiB (0%)
Title : Czech
Language : Czech
Default : No
Forced : No

Text #4
ID : 7
Format : UTF-8
Codec ID : S_TEXT/UTF8
Codec ID/Info : UTF-8 Plain Text
Duration : 50 min 54 s
Bit rate : 33 b/s
Count of elements : 471
Stream size : 12.6 KiB (0%)
Title : Danish
Language : Danish
Default : No
Forced : No

Text #5
ID : 8
Format : UTF-8
Codec ID : S_TEXT/UTF8
Codec ID/Info : UTF-8 Plain Text
Duration : 50 min 54 s
Bit rate : 57 b/s
Count of elements : 469
Stream size : 21.5 KiB (0%)
Title : Greek
Language : Greek
Default : No
Forced : No

Text #6
ID : 9
Format : UTF-8
Codec ID : S_TEXT/UTF8
Codec ID/Info : UTF-8 Plain Text
Duration : 50 min 54 s
Bit rate : 34 b/s
Count of elements : 467
Stream size : 12.8 KiB (0%)
Title : English
Language : English
Default : No
Forced : No

Text #7
ID : 10
Format : UTF-8
Codec ID : S_TEXT/UTF8
Codec ID/Info : UTF-8 Plain Text
Duration : 48 min 46 s
Bit rate : 50 b/s
Count of elements : 579
Stream size : 17.9 KiB (0%)
Title : English
Language : English
Default : No
Forced : No

Text #8
ID : 11
Format : UTF-8
Codec ID : S_TEXT/UTF8
Codec ID/Info : UTF-8 Plain Text
Duration : 50 min 54 s
Bit rate : 34 b/s
Count of elements : 458
Stream size : 12.8 KiB (0%)
Title : Spanish
Language : Spanish
Default : No
Forced : No

Text #9
ID : 12
Format : UTF-8
Codec ID : S_TEXT/UTF8
Codec ID/Info : UTF-8 Plain Text
Duration : 50 min 54 s
Bit rate : 32 b/s
Count of elements : 471
Stream size : 12.0 KiB (0%)
Title : European Spanish
Language : Spanish
Default : No
Forced : No

Text #10
ID : 13
Format : UTF-8
Codec ID : S_TEXT/UTF8
Codec ID/Info : UTF-8 Plain Text
Duration : 50 min 54 s
Bit rate : 35 b/s
Count of elements : 471
Stream size : 13.4 KiB (0%)
Title : Finnish
Language : Finnish
Default : No
Forced : No

Text #11
ID : 14
Format : UTF-8
Codec ID : S_TEXT/UTF8
Codec ID/Info : UTF-8 Plain Text
Duration : 50 min 54 s
Bit rate : 36 b/s
Count of elements : 464
Stream size : 13.8 KiB (0%)
Title : French
Language : French
Default : No
Forced : No

Text #12
ID : 15
Format : UTF-8
Codec ID : S_TEXT/UTF8
Codec ID/Info : UTF-8 Plain Text
Duration : 50 min 54 s
Bit rate : 32 b/s
Count of elements : 471
Stream size : 12.0 KiB (0%)
Title : Croatian
Language : Croatian
Default : No
Forced : No

Text #13
ID : 16
Format : UTF-8
Codec ID : S_TEXT/UTF8
Codec ID/Info : UTF-8 Plain Text
Duration : 50 min 54 s
Bit rate : 33 b/s
Count of elements : 470
Stream size : 12.6 KiB (0%)
Title : Hungarian
Language : Hungarian
Default : No
Forced : No

Text #14
ID : 17
Format : UTF-8
Codec ID : S_TEXT/UTF8
Codec ID/Info : UTF-8 Plain Text
Duration : 50 min 54 s
Bit rate : 33 b/s
Count of elements : 471
Stream size : 12.4 KiB (0%)
Title : Indonesian
Language : Indonesian
Default : No
Forced : No

Text #15
ID : 18
Format : UTF-8
Codec ID : S_TEXT/UTF8
Codec ID/Info : UTF-8 Plain Text
Duration : 49 min 34 s
Bit rate : 51 b/s
Count of elements : 601
Stream size : 18.6 KiB (0%)
Title : Italian
Language : Italian
Default : No
Forced : No

Text #16
ID : 19
Format : UTF-8
Codec ID : S_TEXT/UTF8
Codec ID/Info : UTF-8 Plain Text
Duration : 50 min 54 s
Bit rate : 34 b/s
Count of elements : 471
Stream size : 12.9 KiB (0%)
Title : Norwegian Bokmal
Language : Norwegian
Default : No
Forced : No

Text #17
ID : 20
Format : UTF-8
Codec ID : S_TEXT/UTF8
Codec ID/Info : UTF-8 Plain Text
Duration : 50 min 54 s
Bit rate : 34 b/s
Count of elements : 471
Stream size : 12.7 KiB (0%)
Title : Dutch
Language : Dutch
Default : No
Forced : No

Text #18
ID : 21
Format : UTF-8
Codec ID : S_TEXT/UTF8
Codec ID/Info : UTF-8 Plain Text
Duration : 50 min 54 s
Bit rate : 26 b/s
Count of elements : 467
Stream size : 9.92 KiB (0%)
Title : Polish
Language : Polish
Default : No
Forced : No

Text #19
ID : 22
Format : UTF-8
Codec ID : S_TEXT/UTF8
Codec ID/Info : UTF-8 Plain Text
Duration : 50 min 54 s
Bit rate : 34 b/s
Count of elements : 471
Stream size : 13.0 KiB (0%)
Title : Portuguese
Language : Portuguese
Default : No
Forced : No

Text #20
ID : 23
Format : UTF-8
Codec ID : S_TEXT/UTF8
Codec ID/Info : UTF-8 Plain Text
Duration : 50 min 54 s
Bit rate : 33 b/s
Count of elements : 469
Stream size : 12.6 KiB (0%)
Title : Brazilian Portuguese
Language : Portuguese
Default : No
Forced : No

Text #21
ID : 24
Format : UTF-8
Codec ID : S_TEXT/UTF8
Codec ID/Info : UTF-8 Plain Text
Duration : 50 min 54 s
Bit rate : 54 b/s
Count of elements : 471
Stream size : 20.3 KiB (0%)
Title : Russian
Language : Russian
Default : No
Forced : No

Text #22
ID : 25
Format : UTF-8
Codec ID : S_TEXT/UTF8
Codec ID/Info : UTF-8 Plain Text
Duration : 50 min 54 s
Bit rate : 34 b/s
Count of elements : 471
Stream size : 13.0 KiB (0%)
Title : Swedish
Language : Swedish
Default : No
Forced : No

Text #23
ID : 26
Format : UTF-8
Codec ID : S_TEXT/UTF8
Codec ID/Info : UTF-8 Plain Text
Duration : 50 min 54 s
Bit rate : 35 b/s
Count of elements : 471
Stream size : 13.2 KiB (0%)
Title : Turkish
Language : Turkish
Default : No
Forced : No





Baby S03E01


Baby S03E01


Baby S03E01


Baby S03E01


Baby S03E01

Alle Folgen