Stichworte
Stichworte

Un éléphant ça trompe énormément (1976)

Gesendet von: Kinosuchtig
1080p (FullHD) / BDRip IMDb
Un éléphant ça trompe énormément (1976)

Un éléphant ça trompe énormément (1976)
WEB-DL | MKV | 1792x1080 | Français / Deutsch | H264 @ 8977 kbps | AC-3 @ 224 kbps | 1 h 48 min | 8.12 GiB
Subtitles: English, Deutsch
Genre: Comedy, Romance

As loyal as a dove, a family man is about to tell his first lie to his wife when he falls for an enchanting woman in a billowy red dress. With a bit of help, he just might get what he wishes for; however, is love always a bed of roses?,As loyal as a dove, the down-to-earth family man, Étienne Dorsay, is about to tell his first lie to his supportive and caring wife, Marthe, when, out of the blue, falls head over heels in love with an enchanting woman in a billowy red dress. Now, he is a fearless Casanova willing to go to great lengths to be with the object of his ever-growing desire; however, is Étienne–the inexperienced adventure-seeker–up for the task? With the aid of his few intimate friends, Étienne just might get what he wishes for; nevertheless, is love always a bed of roses?

Ein.Elefant.irrt.sich.gewaltig.1976.UNCUT.German.AC3D.DL.1080p.BluRay.x264-paranoid06.part1.rar (4.3 GB)
Ein.Elefant.irrt.sich.gewaltig.1976.UNCUT.German.AC3D.DL.1080p.BluRay.x264-paranoid06.part2.rar (3.9 GB)



General
Unique ID : 82432834992338604950054554704767019072 (0x3E03FC8D4FD54D3724EAF5A5870EE840)
Complete name : ./Ein.Elefant.irrt.sich.gewaltig.1976.UNCUT.German.AC3D.DL.1080p.BluRay.x264-paranoid06.mkv
Format : Matroska
Format version : Version 4 / Version 2
File size : 8.12 GiB
Duration : 1 h 48 min
Overall bit rate : 10.7 Mb/s
Encoded date : UTC 2018-07-10 16:10:47
Writing application : mkvmerge v24.0.0 ('Beyond The Pale') 64-bit
Writing library : libebml v1.3.6 + libmatroska v1.4.9

Video
ID : 1
Format : AVC
Format/Info : Advanced Video Codec
Format profile : High@L4
Format settings : CABAC / 4 Ref Frames
Format settings, CABAC : Yes
Format settings, RefFrames : 4 frames
Codec ID : V_MPEG4/ISO/AVC
Duration : 1 h 48 min
Bit rate : 8 977 kb/s
Width : 1 792 pixels
Height : 1 080 pixels
Display aspect ratio : 5:3
Frame rate mode : Constant
Frame rate : 24.000 FPS
Color space : YUV
Chroma subsampling : 4:2:0
Bit depth : 8 bits
Scan type : Progressive
Bits/(Pixel*Frame) : 0.193
Stream size : 6.80 GiB (84%)
Writing library : x264 core 140 r2377 1ca7bb9
Encoding settings : cabac=1 / ref=4 / deblock=1:0:0 / analyse=0x3:0x133 / me=umh / subme=8 / psy=1 / psy_rd=1.00:0.00 / mixed_ref=1 / me_range=16 / chroma_me=1 / trellis=1 / 8x8dct=1 / cqm=0 / deadzone=21,11 / fast_pskip=0 / chroma_qp_offset=-2 / threads=18 / lookahead_threads=3 / sliced_threads=0 / nr=0 / decimate=1 / interlaced=0 / bluray_compat=0 / constrained_intra=0 / bframes=3 / b_pyramid=2 / b_adapt=2 / b_bias=0 / direct=3 / weightb=1 / open_gop=0 / weightp=2 / keyint=250 / keyint_min=24 / scenecut=40 / intra_refresh=0 / rc_lookahead=50 / rc=2pass / mbtree=1 / bitrate=8977 / ratetol=1.0 / qcomp=0.60 / qpmin=0 / qpmax=69 / qpstep=4 / cplxblur=20.0 / qblur=0.5 / ip_ratio=1.40 / aq=1:1.00
Default : Yes
Forced : No

Audio #1
ID : 2
Format : AC-3
Format/Info : Audio Coding 3
Format settings, Endianness : Big
Codec ID : A_AC3
Duration : 1 h 48 min
Bit rate mode : Constant
Bit rate : 224 kb/s
Channel(s) : 2 channels
Channel positions : Front: L R
Sampling rate : 48.0 kHz
Frame rate : 31.250 FPS (1536 SPF)
Bit depth : 16 bits
Compression mode : Lossy
Stream size : 174 MiB (2%)
Title : AC3 2.0 224Kbps
Language : German
Service kind : Complete Main
Default : Yes
Forced : No

Audio #2
ID : 3
Format : DTS
Format/Info : Digital Theater Systems
Mode : 16
Format settings, Endianness : Big
Codec ID : A_DTS
Duration : 1 h 48 min
Bit rate mode : Constant
Bit rate : 1 509 kb/s
Channel(s) : 2 channels
Channel positions : Front: L R
Sampling rate : 48.0 kHz
Frame rate : 93.750 FPS (512 SPF)
Bit depth : 24 bits
Compression mode : Lossy
Stream size : 1.14 GiB (14%)
Title : DTS 2.0 1509Kbps
Language : French
Default : No
Forced : No

Text #1
ID : 4
Format : UTF-8
Codec ID : S_TEXT/UTF8
Codec ID/Info : UTF-8 Plain Text
Duration : 1 min 20 s
Bit rate : 40 b/s
Count of elements : 15
Stream size : 406 Bytes (0%)
Title : German Forced
Language : German
Default : Yes
Forced : No

Text #2
ID : 5
Format : UTF-8
Codec ID : S_TEXT/UTF8
Codec ID/Info : UTF-8 Plain Text
Duration : 1 h 45 min
Bit rate : 80 b/s
Count of elements : 1204
Stream size : 62.2 KiB (0%)
Title : German SDH
Language : German
Default : No
Forced : No

Text #3
ID : 6
Format : UTF-8
Codec ID : S_TEXT/UTF8
Codec ID/Info : UTF-8 Plain Text
Duration : 1 h 45 min
Bit rate : 52 b/s
Count of elements : 1380
Stream size : 40.8 KiB (0%)
Title : English Subs
Language : English
Default : No
Forced : No

Menu
00:00:00.000 : en:00:00:00.000
00:08:04.000 : en:00:08:04.000
00:17:19.000 : en:00:17:19.000
00:28:57.000 : en:00:28:57.000
00:37:21.000 : en:00:37:21.000
00:46:54.000 : en:00:46:54.000
00:59:09.000 : en:00:59:09.000
01:07:33.000 : en:01:07:33.000
01:15:04.000 : en:01:15:04.000
01:27:10.000 : en:01:27:10.000
01:34:04.000 : en:01:34:04.000
01:39:42.000 : en:01:39:42.000





Un éléphant ça trompe énormément (1976)


Un éléphant ça trompe énormément (1976)


Un éléphant ça trompe énormément (1976)


Un éléphant ça trompe énormément (1976)


Un éléphant ça trompe énormément (1976)