Stichworte
Stichworte

The Woman in the Window (1944)

Gesendet von: Kinosuchtig
1080p (FullHD) / BDRip IMDb
The Woman in the Window (1944)

The Woman in the Window (1944)
WEB-DL | MKV | 1440x1080 | English / Deutsch | H264 @ 12741 kbps | DTS @ 1509 kbps | 1 h 39 min | 10.9 GiB
Subtitles: Deutsch
Genre: Drama, Thriller, Mystery, Crime

A seductive woman gets an innocent professor mixed up in murder.

Gefaehrliche.Begegnung.1944.German.DL.1080p.BluRay.x264-SPiCY.part1.rar (5.8 GB)
Gefaehrliche.Begegnung.1944.German.DL.1080p.BluRay.x264-SPiCY.part2.rar (5.4 GB)



General
Unique ID : 218005269189804593514886662669573708662 (0xA402499FEFB24144A71CEC4B02F25B76)
Complete name : ./spy-womanwindow1944-1080p.mkv
Format : Matroska
Format version : Version 4 / Version 2
File size : 10.9 GiB
Duration : 1 h 39 min
Overall bit rate : 15.8 Mb/s
Encoded date : UTC 2021-02-27 13:55:40
Writing application : mkvmerge v9.0.1 ('Obstacles') 64bit
Writing library : libebml v1.3.3 + libmatroska v1.4.4

Video
ID : 1
Format : AVC
Format/Info : Advanced Video Codec
Format profile : High@L4.1
Format settings : CABAC / 4 Ref Frames
Format settings, CABAC : Yes
Format settings, RefFrames : 4 frames
Codec ID : V_MPEG4/ISO/AVC
Duration : 1 h 39 min
Bit rate : 12.7 Mb/s
Width : 1 440 pixels
Height : 1 080 pixels
Display aspect ratio : 4:3
Frame rate mode : Constant
Frame rate : 23.976 (24000/1001) FPS
Color space : YUV
Chroma subsampling : 4:2:0
Bit depth : 8 bits
Scan type : Progressive
Bits/(Pixel*Frame) : 0.342
Stream size : 8.84 GiB (81%)
Writing library : x264 core 161 r3048 b86ae3c
Encoding settings : cabac=1 / ref=4 / deblock=1:-1:-1 / analyse=0x3:0x113 / me=umh / subme=7 / psy=1 / psy_rd=1.00:0.00 / mixed_ref=1 / me_range=16 / chroma_me=1 / trellis=1 / 8x8dct=1 / cqm=0 / deadzone=21,11 / fast_pskip=0 / chroma_qp_offset=-2 / threads=34 / lookahead_threads=5 / sliced_threads=0 / nr=0 / decimate=1 / interlaced=0 / bluray_compat=0 / constrained_intra=0 / bframes=3 / b_pyramid=2 / b_adapt=1 / b_bias=0 / direct=3 / weightb=1 / open_gop=0 / weightp=2 / keyint=250 / keyint_min=23 / scenecut=40 / intra_refresh=0 / rc_lookahead=40 / rc=2pass / mbtree=1 / bitrate=12741 / ratetol=1.0 / qcomp=0.60 / qpmin=0 / qpmax=69 / qpstep=4 / cplxblur=20.0 / qblur=0.5 / ip_ratio=1.40 / aq=1:1.00
Default : Yes
Forced : No

Audio #1
ID : 2
Format : DTS
Format/Info : Digital Theater Systems
Mode : 16
Format settings, Endianness : Big
Codec ID : A_DTS
Duration : 1 h 39 min
Bit rate mode : Constant
Bit rate : 1 509 kb/s
Channel(s) : 2 channels
Channel positions : Front: L R
Sampling rate : 48.0 kHz
Frame rate : 93.750 FPS (512 SPF)
Bit depth : 24 bits
Compression mode : Lossy
Stream size : 1.05 GiB (10%)
Language : German
Default : Yes
Forced : No

Audio #2
ID : 3
Format : DTS
Format/Info : Digital Theater Systems
Mode : 16
Format settings, Endianness : Big
Codec ID : A_DTS
Duration : 1 h 39 min
Bit rate mode : Constant
Bit rate : 1 509 kb/s
Channel(s) : 2 channels
Channel positions : Front: L R
Sampling rate : 48.0 kHz
Frame rate : 93.750 FPS (512 SPF)
Bit depth : 24 bits
Compression mode : Lossy
Stream size : 1.05 GiB (10%)
Language : English
Default : No
Forced : No

Text
ID : 4
Format : UTF-8
Codec ID : S_TEXT/UTF8
Codec ID/Info : UTF-8 Plain Text
Duration : 44 min 59 s
Bit rate : 0 b/s
Count of elements : 8
Stream size : 314 Bytes (0%)
Language : German
Default : Yes
Forced : Yes

Menu
00:00:00.000 : en:00:00:00.000
00:10:08.233 : en:00:10:08.233
00:24:32.513 : en:00:24:32.513
00:37:44.554 : en:00:37:44.554
00:49:59.705 : en:00:49:59.705
01:01:59.299 : en:01:01:59.299
01:14:36.055 : en:01:14:36.055
01:30:37.849 : en:01:30:37.849
01:39:13.739 : en:01:39:13.739





The Woman in the Window (1944)


The Woman in the Window (1944)


The Woman in the Window (1944)


The Woman in the Window (1944)


The Woman in the Window (1944)