Stichworte
Stichworte

The Woman in the Window (1944)

Gesendet von: Kinosuchtig
1080p (FullHD) / BDRip IMDb
The Woman in the Window (1944)

The Woman in the Window (1944)
WEB-DL | MKV | 1440x1080 | English / Deutsch | H264 @ 11124 kbps | AC-3 @ 224 kbps | 1 h 39 min | 8.90 GiB
Subtitles: English
Genre: Crime, Drama, Film-Noir, Mystery, Thriller

A conservative middle aged professor engages in a relationship with a femme fatale, he's plunged into a nightmarish world of blackmail and murder.,Gotham College professor Wanley and his friends become obsessed with the portrait of a woman in the window next to the men's club.

Gefaehrliche.Begegnung.1944.German.AC3D.DL.1080p.BluRay.x264-paranoid06.part1.rar (4.7 GB)
Gefaehrliche.Begegnung.1944.German.AC3D.DL.1080p.BluRay.x264-paranoid06.part2.rar (4.3 GB)



General
Unique ID : 159111555252210126951628634003414789331 (0x77B3C5581E3C14A2E7F3FE133C812CD3)
Complete name : ./Gefaehrliche.Begegnung.1944.German.AC3D.DL.1080p.BluRay.x264-paranoid06.mkv
Format : Matroska
Format version : Version 4 / Version 2
File size : 8.90 GiB
Duration : 1 h 39 min
Overall bit rate : 12.9 Mb/s
Encoded date : UTC 2018-06-26 16:40:03
Writing application : mkvmerge v24.0.0 ('Beyond The Pale') 64-bit
Writing library : libebml v1.3.6 + libmatroska v1.4.9

Video
ID : 1
Format : AVC
Format/Info : Advanced Video Codec
Format profile : High@L4.1
Format settings : CABAC / 5 Ref Frames
Format settings, CABAC : Yes
Format settings, RefFrames : 5 frames
Codec ID : V_MPEG4/ISO/AVC
Duration : 1 h 39 min
Bit rate : 11.1 Mb/s
Width : 1 440 pixels
Height : 1 080 pixels
Display aspect ratio : 4:3
Frame rate mode : Constant
Frame rate : 23.976 (24000/1001) FPS
Color space : YUV
Chroma subsampling : 4:2:0
Bit depth : 8 bits
Scan type : Progressive
Bits/(Pixel*Frame) : 0.298
Stream size : 7.70 GiB (87%)
Writing library : x264 core 155 r2901 7d0ff22
Encoding settings : cabac=1 / ref=5 / deblock=1:-3:-3 / analyse=0x3:0x113 / me=umh / subme=8 / psy=1 / psy_rd=1.00:0.00 / mixed_ref=1 / me_range=16 / chroma_me=1 / trellis=2 / 8x8dct=1 / cqm=0 / deadzone=21,11 / fast_pskip=0 / chroma_qp_offset=-2 / threads=12 / lookahead_threads=2 / sliced_threads=0 / nr=0 / decimate=1 / interlaced=0 / bluray_compat=0 / constrained_intra=0 / bframes=3 / b_pyramid=2 / b_adapt=1 / b_bias=0 / direct=1 / weightb=1 / open_gop=0 / weightp=2 / keyint=250 / keyint_min=23 / scenecut=40 / intra_refresh=0 / rc_lookahead=40 / rc=2pass / mbtree=1 / bitrate=11124 / ratetol=1.0 / qcomp=0.60 / qpmin=0 / qpmax=69 / qpstep=4 / cplxblur=20.0 / qblur=0.5 / ip_ratio=1.40 / aq=1:1.00
Default : Yes
Forced : No

Audio #1
ID : 2
Format : AC-3
Format/Info : Audio Coding 3
Format settings, Endianness : Big
Codec ID : A_AC3
Duration : 1 h 39 min
Bit rate mode : Constant
Bit rate : 224 kb/s
Channel(s) : 2 channels
Channel positions : Front: L R
Sampling rate : 48.0 kHz
Frame rate : 31.250 FPS (1536 SPF)
Bit depth : 16 bits
Compression mode : Lossy
Stream size : 159 MiB (2%)
Title : AC3 2.0 224Kbps
Language : German
Service kind : Complete Main
Default : Yes
Forced : No

Audio #2
ID : 3
Format : DTS
Format/Info : Digital Theater Systems
Mode : 16
Format settings, Endianness : Big
Codec ID : A_DTS
Duration : 1 h 39 min
Bit rate mode : Constant
Bit rate : 1 509 kb/s
Channel(s) : 2 channels
Channel positions : Front: L R
Sampling rate : 48.0 kHz
Frame rate : 93.750 FPS (512 SPF)
Bit depth : 24 bits
Compression mode : Lossy
Stream size : 1.04 GiB (12%)
Title : DTS 2.0 1509Kbps
Language : English
Default : No
Forced : No

Text
ID : 4
Format : UTF-8
Codec ID : S_TEXT/UTF8
Codec ID/Info : UTF-8 Plain Text
Duration : 1 h 37 min
Bit rate : 60 b/s
Count of elements : 1155
Stream size : 42.9 KiB (0%)
Title : English Subs
Language : English
Default : No
Forced : No

Menu
00:00:00.000 : en:MAIN TITLES/PSYCHOLOGY
00:02:04.324 : en:SUMMER BACHELORHOOD
00:04:08.114 : en:TOO OLD FOR ADVENTURE
00:09:32.406 : en:THE WOMAN IN THE WINDOW
00:15:33.767 : en:HOMICIDE
00:18:55.503 : en:NO ONE KNOWS
00:25:37.238 : en:ERASING THE EVIDENCE
00:35:11.479 : en:DUMPING THE BODY
00:40:16.283 : en:CONFIDENTIAL NEWS
00:45:51.618 : en:MURDER INVESTIGATION
00:50:50.486 : en:THE GIRLFRIEND THEORY
00:53:52.201 : en:CRIME SCENE
00:59:14.691 : en:WOMAN SUSPECT
01:01:57.822 : en:BLACKMAIL
01:13:08.859 : en:THREE OPTIONS
01:18:38.488 : en:HAVE A DRINK
01:28:45.796 : en:SO TIRED
01:32:02.492 : en:CASE CLOSED
01:34:09.619 : en:TOO LATE
01:36:06.236 : en:REALITY





The Woman in the Window (1944)


The Woman in the Window (1944)


The Woman in the Window (1944)


The Woman in the Window (1944)


The Woman in the Window (1944)