Lucile Richardot, Yves Saelens, Het Collectief & Reinbert de Leeuw - Mahler: Das Lied von der Erde (2020) [Of Dgt Dwnld 24/88]

Gesendet von: delpotro
Lucile Richardot, Yves Saelens, Het Collectief & Reinbert de Leeuw - Mahler: Das Lied von der Erde (2020) [Of Dgt Dwnld 24/88]

Lucile Richardot, Yves Saelens, Het Collectief & Reinbert de Leeuw - Mahler: Das Lied von der Erde (2020)
FLAC (tracks) 24-bit/88,2 kHz | Front Cover & Digital Booklet | Time - 73:19 minutes | 1,02 GB
Classical, Vocal | Label: Alpha Classics, Official Digital Download

This recording was made under the direction of Reinbert de Leeuw in December 2019, two months before his death. A few weeks before that, he had called Thomas Dieltjens, artistic director of Het Collectief, to tell him: Since our concert in mid-July 2019, Das Lied von der Erde has constantly been on my mind. I am totally fascinated by it and discover new things in it every day. It would be a dream if we could record this music with the exceptional cast of musicians and soloist singers of the Saintes festival, and preferably the sooner the better. Words failed, as can be gathered from the many concert reviews they received. Mahlers Das Lied von der Erde is already so much more than just music, it encompasses life as a whole, from early birth till death. Reinbert de Leeuw made of this masterpiece an exceptionally refined arrangement for 15 instrumentalists and 2 soloists. How Reinbert manages to render the full force of Mahlers original score in his arrangement is unparalleled. There is the addition of the harp, some percussion, a contrabassoon and a bass clarinet. With the harmonium as an essential link between cords, winds, percussion and piano. One lacks ears to feel the richness of Reinberts arrangement. This is pure musical delight.

Tracklist:
1. Reinbert de Leeuw, Yves Saelens & Het Collectief – Das Lied von der Erde (Arranged by Reinbert De Leeuw): I. Das Trinklied vom Jammer der Erde (07:03)
2. Reinbert de Leeuw, Lucile Richardot & Het Collectief – Das Lied von der Erde (Arranged by Reinbert De Leeuw): II. Der Einsame im Herbst (10:12)
3. Reinbert de Leeuw, Yves Saelens & Het Collectief – Das Lied von der Erde (Arranged by Reinbert De Leeuw): III. Von der Jugend (03:12)
4. Reinbert de Leeuw, Lucile Richardot & Het Collectief – Das Lied von der Erde (Arranged by Reinbert De Leeuw): IV. Von der Schönheit (07:03)
5. Reinbert de Leeuw, Yves Saelens & Het Collectief – Das Lied von der Erde (Arranged by Reinbert De Leeuw): V. Der Trunkene im Frühling (04:13)
6. Reinbert de Leeuw, Lucile Richardot & Het Collectief – Das Lied von der Erde (Arranged by Reinbert De Leeuw): VI. Der Abschied (31:34)

foobar2000 1.4.1 / Dynamic Range Meter 1.1.1
log date: 2020-09-17 15:00:57

––––––––––––––––––––––––––––––––––––––––
Analyzed: Lucile Richardot, Yves Saelens, Het Collectief, Reinbert De Leeuw / Mahler - Das Lied von der Erde
––––––––––––––––––––––––––––––––––––––––

DR Peak RMS Duration Track
––––––––––––––––––––––––––––––––––––––––
DR13 -0.89 dB -19.42 dB 7:03 01-Das Lied von der Erde: I. Das Trinklied vom Jammer der Erde (Arranged by Reinbert De Leeuw)
DR15 -4.61 dB -27.64 dB 10:12 02-Das Lied von der Erde: II. Der Einsame im Herbst (Arranged by Reinbert De Leeuw)
DR14 -7.41 dB -26.30 dB 3:13 03-Das Lied von der Erde: III. Von der Jugend (Arranged by Reinbert De Leeuw)
DR13 -2.36 dB -23.41 dB 7:03 04-Das Lied von der Erde: IV. Von der Schönheit (Arranged by Reinbert De Leeuw)
DR13 -0.81 dB -20.02 dB 4:14 05-Das Lied von der Erde: V. Der Trunkene im Frühling (Arranged by Reinbert De Leeuw)
DR15 -3.60 dB -25.64 dB 31:34 06-Das Lied von der Erde: VI. Der Abschied (Arranged by Reinbert De Leeuw)
––––––––––––––––––––––––––––––––––––––––

Number of tracks: 6
Official DR value: DR14

Samplerate: 88200 Hz
Channels: 2
Bits per sample: 24
Bitrate: 2183 kbps
Codec: FLAC
================================================================================


Thanks to the Original customer!